Поиск

(Contemporary Jazz) Aldo Romano (Henri Texier, Geraldine Laurent, Fabrizio Bosso) - Complete Communion to Don Cherry - 2010 [Dreyfus Jazz FDM 369662], FLAC (tracks+.cue) lossless

(Contemporary Jazz) Aldo Romano (Henri Texier, Geraldine Laurent, Fabrizio Bosso) - Complete Communion to Don Cherry - 2010 [Dreyfus Jazz FDM 369662], FLAC (tracks+.cue) lossless
Треклист:
Aldo Romano - Complete Communion to Don Cherry
Жанр: Contemporary Jazz
Страна-производитель диска: France
Год издания диска: 2010
Издатель (лейбл): Dreyfus Jazz
Номер по каталогу: FDM 369662
Страна: France
Аудио кодек: FLAC (*.flac)
Тип рипа: tracks+.cue
Битрейт аудио: lossless
Продолжительность: 00:48:48
Источник (релизер): AvaxHome / спасибо SERTiL
Наличие сканов в содержимом раздачи: да
Треклист:
1. Rememberance (05:24)
2. Elephantasy (05:17)
3. Music Man (04:19)
4. Spring Is Here (04:23)
5. Jayne (04:01)
6. Complete Communion (03:16)
7. Don Song (02:16)
8. The Blessing (05:01)
9. Mothers Of The Veil (03:46)
10. Gush!! (02:42)
11. Art Deco (04:04)
12. When Will The Blues Leave (04:12)
Composed by - Aldo Romano (tracks: 10), Don Cherry (tracks: 1 to 4, 6, 7, 11),
Ornette Coleman (tracks: 5, 8, 9, 12)
Доп. информация:
Musicians:
Aldo Romano - drums
Henri Texier - bass
Géraldine Laurent - sax
Fabrizio Bosso - trumpet
Recorded by - Jeff Ginouvès / Released: 09-11-2010
© 2010 Dreyfus Jazz
Aldo Romano - Complete Communion to Don Cherry disquesdreyfus.com
 
Scans / 72 dpi



 
 
 
Лог создания рипа
Exact Audio Copy V1.0 beta 1 from 15. November 2010
EAC extraction logfile from 10. December 2010, 0:46
Aldo Romano / Complete Communion to Don Cherry
Used drive  : PLEXTOR DVDR   PX-860A   Adapter: 0  ID: 0
Read mode               : Secure
Utilize accurate stream : Yes
Defeat audio cache      : Yes
Make use of C2 pointers : No
Read offset correction                      : 96
Overread into Lead-In and Lead-Out          : No
Fill up missing offset samples with silence : Yes
Delete leading and trailing silent blocks   : No
Null samples used in CRC calculations       : Yes
Used interface                              : Native Win32 interface for Win NT & 2000
Gap handling                                : Appended to previous track
Used output format              : User Defined Encoder
Selected bitrate                : 1024 kBit/s
Quality                         : High
Add ID3 tag                     : No
Command line compressor         : C:\Program Files\Exact Audio Copy\flac.exe
Additional command line options : -8 -V -T "ARTIST=%a" -T "TITLE=%t" -T "ALBUM=%g" -T "DATE=%y" -T "TRACKNUMBER=%n" -T "TOTALTRACKS=%x" -T "GENRE=%m" -T "ALBUMARTIST=%v" -T "ALBUM ARTIST=%v" -T "COMMENT=EAC V1.0 beta 1 Secure Mode, Test & Copy, AccurateRip,
TOC of the extracted CD
     Track |   Start  |  Length  | Start sector | End sector
    ---------------------------------------------------------
        1  |  0:00.00 |  5:24.51 |         0    |    24350
        2  |  5:24.51 |  5:17.54 |     24351    |    48179
        3  | 10:42.30 |  4:20.38 |     48180    |    67717
        4  | 15:02.68 |  4:24.05 |     67718    |    87522
        5  | 19:26.73 |  4:01.72 |     87523    |   105669
        6  | 23:28.70 |  3:17.10 |    105670    |   120454
        7  | 26:46.05 |  2:17.20 |    120455    |   130749
        8  | 29:03.25 |  5:02.12 |    130750    |   153411
        9  | 34:05.37 |  3:47.02 |    153412    |   170438
       10  | 37:52.39 |  2:42.25 |    170439    |   182613
       11  | 40:34.64 |  4:05.14 |    182614    |   201002
       12  | 44:40.03 |  4:12.51 |    201003    |   219953
Track  1
     Filename S:\DL\Aldo Romano - Complete Communion to Don Cherry (2010) [FLAC]\01 - Rememberance.wav
     Pre-gap length  0:00:02.00
     Peak level 100.0 %
     Extraction speed 4.6 X
     Track quality 100.0 %
     Test CRC 3E063A92
     Copy CRC 3E063A92
     Accurately ripped (confidence 2)  [61D1D673]
     Copy OK
Track  2
     Filename S:\DL\Aldo Romano - Complete Communion to Don Cherry (2010) [FLAC]\02 - Elephantasy.wav
     Peak level 100.0 %
     Extraction speed 5.2 X
     Track quality 100.0 %
     Test CRC 1836C12A
     Copy CRC 1836C12A
     Accurately ripped (confidence 2)  [0AC0C676]
     Copy OK
Track  3
     Filename S:\DL\Aldo Romano - Complete Communion to Don Cherry (2010) [FLAC]\03 - Music Man.wav
     Peak level 100.0 %
     Extraction speed 5.6 X
     Track quality 100.0 %
     Test CRC 59D598EA
     Copy CRC 59D598EA
     Accurately ripped (confidence 2)  [BAE5461A]
     Copy OK
Track  4
     Filename S:\DL\Aldo Romano - Complete Communion to Don Cherry (2010) [FLAC]\04 - Spring is here.wav
     Pre-gap length  0:00:00.71
     Peak level 100.0 %
     Extraction speed 6.0 X
     Track quality 100.0 %
     Test CRC 8D114FAF
     Copy CRC 8D114FAF
     Accurately ripped (confidence 2)  [5A9F20B0]
     Copy OK
Track  5
     Filename S:\DL\Aldo Romano - Complete Communion to Don Cherry (2010) [FLAC]\05 - Jayne.wav
     Pre-gap length  0:00:00.58
     Peak level 100.0 %
     Extraction speed 6.3 X
     Track quality 100.0 %
     Test CRC 80E6E18D
     Copy CRC 80E6E18D
     Accurately ripped (confidence 2)  [677167BB]
     Copy OK
Track  6
     Filename S:\DL\Aldo Romano - Complete Communion to Don Cherry (2010) [FLAC]\06 - Complete Communion.wav
     Pre-gap length  0:00:01.00
     Peak level 100.0 %
     Extraction speed 6.3 X
     Track quality 100.0 %
     Test CRC AF9BEA95
     Copy CRC AF9BEA95
     Accurately ripped (confidence 2)  [F0E137E3]
     Copy OK
Track  7
     Filename S:\DL\Aldo Romano - Complete Communion to Don Cherry (2010) [FLAC]\07 - Don Song.wav
     Pre-gap length  0:00:01.11
     Peak level 100.0 %
     Extraction speed 6.1 X
     Track quality 100.0 %
     Test CRC 5B212406
     Copy CRC 5B212406
     Accurately ripped (confidence 2)  [24B2B57D]
     Copy OK
Track  8
     Filename S:\DL\Aldo Romano - Complete Communion to Don Cherry (2010) [FLAC]\08 - The Blessing.wav
     Pre-gap length  0:00:01.01
     Peak level 100.0 %
     Extraction speed 6.5 X
     Track quality 99.9 %
     Test CRC A8F06A3F
     Copy CRC A8F06A3F
     Accurately ripped (confidence 2)  [C4CB6145]
     Copy OK
Track  9
     Filename S:\DL\Aldo Romano - Complete Communion to Don Cherry (2010) [FLAC]\09 - Mothers of the Veil.wav
     Pre-gap length  0:00:00.43
     Peak level 100.0 %
     Extraction speed 7.2 X
     Track quality 100.0 %
     Test CRC 19491196
     Copy CRC 19491196
     Accurately ripped (confidence 2)  [B624C0F9]
     Copy OK
Track 10
     Filename S:\DL\Aldo Romano - Complete Communion to Don Cherry (2010) [FLAC]\10 - Gush !!.wav
     Pre-gap length  0:00:00.57
     Peak level 100.0 %
     Extraction speed 6.9 X
     Track quality 100.0 %
     Test CRC D7A5E969
     Copy CRC D7A5E969
     Track not present in AccurateRip database
     Copy OK
Track 11
     Filename S:\DL\Aldo Romano - Complete Communion to Don Cherry (2010) [FLAC]\11 - Art Deco.wav
     Peak level 100.0 %
     Extraction speed 7.7 X
     Track quality 100.0 %
     Test CRC 4F5B80A3
     Copy CRC 4F5B80A3
     Accurately ripped (confidence 2)  [94FD97BC]
     Copy OK
Track 12
     Filename S:\DL\Aldo Romano - Complete Communion to Don Cherry (2010) [FLAC]\12 - When will the Blues leave.wav
     Peak level 100.0 %
     Extraction speed 7.0 X
     Track quality 99.9 %
     Test CRC 6BCD3449
     Copy CRC 6BCD3449
     Track not present in AccurateRip database
     Copy OK
10 track(s) accurately ripped
 2 track(s) not present in the AccurateRip database
Some tracks could not be verified as accurate
No errors occurred
End of status report
==== Log checksum AA0E15BD078E324AC524D8A2C69EF9EB54A7650C1E831844946250EDA2E5F82A ====
 
 
Содержание индексной карты (.CUE)
REM GENRE Jazz
REM DATE 2010
REM DISCID 9B0B740C
REM COMMENT "ExactAudioCopy v1.0b1"
PERFORMER "Aldo Romano"
TITLE "Complete Communion to Don Cherry"
FILE "01 - Rememberance.wav" WAVE
  TRACK 01 AUDIO
    TITLE "Rememberance"
    PERFORMER "Aldo Romano"
    INDEX 01 00:00:00
FILE "02 - Elephantasy.wav" WAVE
  TRACK 02 AUDIO
    TITLE "Elephantasy"
    PERFORMER "Aldo Romano"
    INDEX 01 00:00:00
FILE "03 - Music Man.wav" WAVE
  TRACK 03 AUDIO
    TITLE "Music Man"
    PERFORMER "Aldo Romano"
    INDEX 01 00:00:00
  TRACK 04 AUDIO
    TITLE "Spring is here"
    PERFORMER "Aldo Romano"
    INDEX 00 04:19:42
FILE "04 - Spring is here.wav" WAVE
    INDEX 01 00:00:00
  TRACK 05 AUDIO
    TITLE "Jayne"
    PERFORMER "Aldo Romano"
    INDEX 00 04:23:22
FILE "05 - Jayne.wav" WAVE
    INDEX 01 00:00:00
  TRACK 06 AUDIO
    TITLE "Complete Communion"
    PERFORMER "Aldo Romano"
    INDEX 00 04:00:72
FILE "06 - Complete Communion.wav" WAVE
    INDEX 01 00:00:00
  TRACK 07 AUDIO
    TITLE "Don Song"
    PERFORMER "Aldo Romano"
    INDEX 00 03:15:74
FILE "07 - Don Song.wav" WAVE
    INDEX 01 00:00:00
  TRACK 08 AUDIO
    TITLE "The Blessing"
    PERFORMER "Aldo Romano"
    INDEX 00 02:16:19
FILE "08 - The Blessing.wav" WAVE
    INDEX 01 00:00:00
  TRACK 09 AUDIO
    TITLE "Mothers of the Veil"
    PERFORMER "Aldo Romano"
    INDEX 00 05:01:44
FILE "09 - Mothers of the Veil.wav" WAVE
    INDEX 01 00:00:00
  TRACK 10 AUDIO
    TITLE "Gush !!"
    PERFORMER "Aldo Romano"
    INDEX 00 03:46:20
FILE "10 - Gush !!.wav" WAVE
    INDEX 01 00:00:00
FILE "11 - Art Deco.wav" WAVE
  TRACK 11 AUDIO
    TITLE "Art Deco"
    PERFORMER "Aldo Romano"
    INDEX 01 00:00:00
FILE "12 - When will the Blues leave.wav" WAVE
  TRACK 12 AUDIO
    TITLE "When will the Blues leave"
    PERFORMER "Aldo Romano"
    INDEX 01 00:00:00
... релизы лейбла Dreyfus Jazz на трекере ...
Download available for power users only.
20:47
381
Нет комментариев. Ваш будет первым!