Поиск

(Contemporary Jazz) Aldo Romano (Enrico Rava, Enrico Rava, Thomas Bramerie) - Inner Smile - 2011, FLAC (tracks+.cue), lossless

(Contemporary Jazz) Aldo Romano (Enrico Rava, Enrico Rava, Thomas Bramerie) - Inner Smile - 2011, FLAC (tracks+.cue), lossless
Треклист:
Aldo Romano - Inner Smile
Жанр: Contemporary Jazz
Страна-производитель диска: France
Год издания диска: 2011
Издатель (лейбл): Dreyfus Jazz
Номер по каталогу: FDM 369742
Аудиокодек: FLAC (*.flac)
Тип рипа: tracks+.cue
Битрейт аудио: lossless
Продолжительность: 00:49:12
Источник (релизер): другой трекер
Наличие сканов в содержимом раздачи: да
Треклист:
1. Positano (Aldo Romano) (04:09)
2. More (Marcello Cirociolini / Nino Oliviero - Riziero Ortolani) (05:11)
3. Kind Of Autumn (Aldo Romano / Baptiste Trotignon / Enrico Rava / Thomas Bramerie) (04:09)
4. Anny's Lullaby (Aldo Romano) (03:32)
5. Il Piacere (Aldo Romano) (03:38)
6. Old Devil Moon (Burton Lane / E.Y. Harburg) (05:34)
7. Inner Smile (Aldo Romano) (04:01)
8. My Funny Valentine (Lorenz Hart / Richard Rodgers) (08:52)
9. Where Is Aldo? (Baptiste Trotignon) (02:06)
10. E Si Sogna (Aldo Romano) (02:56)
11. I'm Getting Sentimental Over You (Ned Washington / George Bassman) (04:21)
Доп. информация:
Musicians:
Aldo Romano - drums
Enrico Rava - trumpet
Baptiste Trotignon - piano
Thomas Bramerie - double bass
Recorded, mixed & mastered by Stefano Amerio at Artsuono Recording Studios (Cavalicco, Udine, Italy), on March 1, 2 & 3, 2011
© 2011 Dreyfus Jazz
Aldo Romano - Inner Smile disquesdreyfus.com
 
Лог создания рипа
Exact Audio Copy V0.99 prebeta 5 from 4. May 2009
EAC extraction logfile from 11. September 2011, 11:18
Aldo Romano / Inner Smile
Used drive  : PHILIPS SPD3400CC   Adapter: 3  ID: 0
Read mode               : Secure
Utilize accurate stream : Yes
Defeat audio cache      : Yes
Make use of C2 pointers : No
Read offset correction                      : 6
Overread into Lead-In and Lead-Out          : No
Fill up missing offset samples with silence : Yes
Delete leading and trailing silent blocks   : No
Null samples used in CRC calculations       : Yes
Used interface                              : Installed external ASPI interface
Gap handling                                : Appended to previous track
Used output format              : User Defined Encoder
Selected bitrate                : 768 kBit/s
Quality                         : High
Add ID3 tag                     : No
Command line compressor         : C:\Program Files (x86)\Exact Audio Copy\Flac\flac.exe
Additional command line options : -8 -V -T "ARTIST=%a" -T "TITLE=%t" -T "ALBUM=%g" -T "DATE=%y" -T "TRACKNUMBER=%n" -T "TOTALTRACKS=%x" -T "GENRE=%m" -T "ALBUM ARTIST=%v" -T "ALBUMARTIST=%v" -T "COMMENT=EAC V0.99 prebeta 5, Secure Mode, Test & Copy, Accurat
TOC of the extracted CD
     Track |   Start  |  Length  | Start sector | End sector
    ---------------------------------------------------------
        1  |  0:00.00 |  4:11.24 |         0    |    18848
        2  |  4:11.24 |  5:13.33 |     18849    |    42356
        3  |  9:24.57 |  4:11.15 |     42357    |    61196
        4  | 13:35.72 |  3:33.65 |     61197    |    77236
        5  | 17:09.62 |  3:40.31 |     77237    |    93767
        6  | 20:50.18 |  5:35.62 |     93768    |   118954
        7  | 26:26.05 |  4:03.10 |    118955    |   137189
        8  | 30:29.15 |  8:54.16 |    137190    |   177255
        9  | 39:23.31 |  2:08.12 |    177256    |   186867
       10  | 41:31.43 |  2:58.27 |    186868    |   200244
       11  | 44:29.70 |  4:20.49 |    200245    |   219793
Track  1
     Filename C:\Rips\01 - Positano.wav
     Pre-gap length  0:00:02.00
     Peak level 96.6 %
     Track quality 100.0 %
     Test CRC 291B1A4D
     Copy CRC 291B1A4D
     Track not present in AccurateRip database
     Copy OK
Track  2
     Filename C:\Rips\02 - More.wav
     Pre-gap length  0:00:02.00
     Peak level 96.6 %
     Track quality 100.0 %
     Test CRC F4C5C1E2
     Copy CRC F4C5C1E2
     Track not present in AccurateRip database
     Copy OK
Track  3
     Filename C:\Rips\03 - Kinf Of Automn.wav
     Pre-gap length  0:00:02.00
     Peak level 96.6 %
     Track quality 100.0 %
     Test CRC 4A14ADFE
     Copy CRC 4A14ADFE
     Track not present in AccurateRip database
     Copy OK
Track  4
     Filename C:\Rips\04 - Anny's Lullaby.wav
     Pre-gap length  0:00:01.89
     Peak level 96.6 %
     Track quality 99.9 %
     Test CRC 440C7451
     Copy CRC 440C7451
     Track not present in AccurateRip database
     Copy OK
Track  5
     Filename C:\Rips\05 - Il Piacere.wav
     Pre-gap length  0:00:01.76
     Peak level 96.6 %
     Track quality 100.0 %
     Test CRC 8CF31A94
     Copy CRC 8CF31A94
     Track not present in AccurateRip database
     Copy OK
Track  6
     Filename C:\Rips\06 - Old Devil Moon.wav
     Pre-gap length  0:00:02.00
     Peak level 96.6 %
     Track quality 100.0 %
     Test CRC 6592EB96
     Copy CRC 6592EB96
     Track not present in AccurateRip database
     Copy OK
Track  7
     Filename C:\Rips\07 - Inner Smile.wav
     Pre-gap length  0:00:01.98
     Peak level 96.6 %
     Track quality 100.0 %
     Test CRC CCC443C4
     Copy CRC CCC443C4
     Track not present in AccurateRip database
     Copy OK
Track  8
     Filename C:\Rips\08 - My Funny Valentine.wav
     Pre-gap length  0:00:02.00
     Peak level 96.6 %
     Track quality 100.0 %
     Test CRC EA4F22A8
     Copy CRC EA4F22A8
     Track not present in AccurateRip database
     Copy OK
Track  9
     Filename C:\Rips\09 - Where Is Aldo  .wav
     Pre-gap length  0:00:01.97
     Peak level 68.4 %
     Track quality 99.9 %
     Test CRC C7493D56
     Copy CRC C7493D56
     Track not present in AccurateRip database
     Copy OK
Track 10
     Filename C:\Rips\10 - E Si Sogna.wav
     Pre-gap length  0:00:02.00
     Peak level 96.6 %
     Track quality 100.0 %
     Test CRC 40D36BC1
     Copy CRC 40D36BC1
     Track not present in AccurateRip database
     Copy OK
Track 11
     Filename C:\Rips\11 - I'm Getting Sentimental Over You.wav
     Pre-gap length  0:00:01.97
     Peak level 96.6 %
     Track quality 99.9 %
     Test CRC 46123F09
     Copy CRC 46123F09
     Track not present in AccurateRip database
     Copy OK
None of the tracks are present in the AccurateRip database
No errors occurred
End of status report
 
 
Содержание индексной карты (.CUE)
REM GENRE Jazz
REM DATE 2011
REM DISCID 910B720B
REM COMMENT "ExactAudioCopy v0.99pb5"
PERFORMER "Aldo Romano"
TITLE "Inner Smile"
FILE "01 - Positano.wav" WAVE
  TRACK 01 AUDIO
    TITLE "Positano"
    PERFORMER "Aldo Romano"
    INDEX 01 00:00:00
  TRACK 02 AUDIO
    TITLE "More"
    PERFORMER "Aldo Romano"
    INDEX 00 04:09:24
FILE "02 - More.wav" WAVE
    INDEX 01 00:00:00
  TRACK 03 AUDIO
    TITLE "Kinf Of Automn"
    PERFORMER "Aldo Romano"
    INDEX 00 05:11:33
FILE "03 - Kinf Of Automn.wav" WAVE
    INDEX 01 00:00:00
  TRACK 04 AUDIO
    TITLE "Anny's Lullaby"
    PERFORMER "Aldo Romano"
    INDEX 00 04:09:23
FILE "04 - Anny's Lullaby.wav" WAVE
    INDEX 01 00:00:00
  TRACK 05 AUDIO
    TITLE "Il Piacere"
    PERFORMER "Aldo Romano"
    INDEX 00 03:32:08
FILE "05 - Il Piacere.wav" WAVE
    INDEX 01 00:00:00
  TRACK 06 AUDIO
    TITLE "Old Devil Moon"
    PERFORMER "Aldo Romano"
    INDEX 00 03:38:31
FILE "06 - Old Devil Moon.wav" WAVE
    INDEX 01 00:00:00
  TRACK 07 AUDIO
    TITLE "Inner Smile"
    PERFORMER "Aldo Romano"
    INDEX 00 05:33:63
FILE "07 - Inner Smile.wav" WAVE
    INDEX 01 00:00:00
  TRACK 08 AUDIO
    TITLE "My Funny Valentine"
    PERFORMER "Aldo Romano"
    INDEX 00 04:01:10
FILE "08 - My Funny Valentine.wav" WAVE
    INDEX 01 00:00:00
  TRACK 09 AUDIO
    TITLE "Where Is Aldo ?"
    PERFORMER "Aldo Romano"
    INDEX 00 08:52:18
FILE "09 - Where Is Aldo  .wav" WAVE
    INDEX 01 00:00:00
  TRACK 10 AUDIO
    TITLE "E Si Sogna"
    PERFORMER "Aldo Romano"
    INDEX 00 02:06:12
FILE "10 - E Si Sogna.wav" WAVE
    INDEX 01 00:00:00
  TRACK 11 AUDIO
    TITLE "I'm Getting Sentimental Over You"
    PERFORMER "Aldo Romano"
    INDEX 00 02:56:29
FILE "11 - I'm Getting Sentimental Over You.wav" WAVE
    INDEX 01 00:00:00
 
 
Audiochecker 2.0 beta (build 457)
AUDIOCHECKER v2.0 beta (build 457) - by Dester - opdester@freemail.hu
~~~~~~~~~~~~~~~~~~~~~~~~~~~~~~~~~~
Started at: вторник, 20. 09. 2011. - 22:54.16
11 files found
01 -===- G:\TORRENTS.ru_Audio CD\#092_Aldo Romano - Inner Smile (2011)\Aldo Romano - Inner Smile (2011)\01 - Positano.flac
Extracted successfully
Conclusion: this track is CDDA with probability 100%
Tempfile successfully deleted.
02 -===- G:\TORRENTS.ru_Audio CD\#092_Aldo Romano - Inner Smile (2011)\Aldo Romano - Inner Smile (2011)\02 - More.flac
Extracted successfully
Conclusion: this track is CDDA with probability 100%
Tempfile successfully deleted.
03 -===- G:\TORRENTS.ru_Audio CD\#092_Aldo Romano - Inner Smile (2011)\Aldo Romano - Inner Smile (2011)\03 - Kinf Of Automn.flac
Extracted successfully
Conclusion: this track is CDDA with probability 100%
Tempfile successfully deleted.
04 -===- G:\TORRENTS.ru_Audio CD\#092_Aldo Romano - Inner Smile (2011)\Aldo Romano - Inner Smile (2011)\04 - Anny's Lullaby.flac
Extracted successfully
Conclusion: this track is CDDA with probability 100%
Tempfile successfully deleted.
05 -===- G:\TORRENTS.ru_Audio CD\#092_Aldo Romano - Inner Smile (2011)\Aldo Romano - Inner Smile (2011)\05 - Il Piacere.flac
Extracted successfully
Conclusion: this track is CDDA with probability 100%
Tempfile successfully deleted.
06 -===- G:\TORRENTS.ru_Audio CD\#092_Aldo Romano - Inner Smile (2011)\Aldo Romano - Inner Smile (2011)\06 - Old Devil Moon.flac
Extracted successfully
Conclusion: this track is CDDA with probability 100%
Tempfile successfully deleted.
07 -===- G:\TORRENTS.ru_Audio CD\#092_Aldo Romano - Inner Smile (2011)\Aldo Romano - Inner Smile (2011)\07 - Inner Smile.flac
Extracted successfully
Conclusion: this track is CDDA with probability 100%
Tempfile successfully deleted.
08 -===- G:\TORRENTS.ru_Audio CD\#092_Aldo Romano - Inner Smile (2011)\Aldo Romano - Inner Smile (2011)\08 - My Funny Valentine.flac
Extracted successfully
Conclusion: this track is CDDA with probability 100%
Tempfile successfully deleted.
09 -===- G:\TORRENTS.ru_Audio CD\#092_Aldo Romano - Inner Smile (2011)\Aldo Romano - Inner Smile (2011)\09 - Where Is Aldo .flac
Extracted successfully
Conclusion: this track is MPEG with probability 91%
Tempfile successfully deleted.
10 -===- G:\TORRENTS.ru_Audio CD\#092_Aldo Romano - Inner Smile (2011)\Aldo Romano - Inner Smile (2011)\10 - E Si Sogna.flac
Extracted successfully
Conclusion: this track is CDDA with probability 100%
Tempfile successfully deleted.
11 -===- G:\TORRENTS.ru_Audio CD\#092_Aldo Romano - Inner Smile (2011)\Aldo Romano - Inner Smile (2011)\11 - I'm Getting Sentimental Over You.flac
Extracted successfully
Conclusion: this track is CDDA with probability 100%
Tempfile successfully deleted.
Finished at: вторник, 20. 09. 2011. - 22:59.42 (operation time: 0:05.26)
... релизы лейбла Dreyfus Jazz на трекере ...
Download available for power users only.
10:52
503
Нет комментариев. Ваш будет первым!