Поиск

(Contemporary Jazz) Ahmed Abdullah Quartet - Liquid Magic - 1988, APE (image+.cue), lossless

(Contemporary Jazz) Ahmed Abdullah Quartet - Liquid Magic - 1988, APE (image+.cue), lossless
Треклист:
Ahmed Abdullah Quartet - Liquid Magic
Жанр: Contemporary Jazz
Страна-производитель диска: U.S.A.
Год издания диска: 1988
Издатель (лейбл): SILKHEART
Номер по каталогу: SHCD 104
Аудиокодек: APE (*.ape)
Тип рипа: image+.cue
Битрейт аудио: lossless
Продолжительность: 01:00:10
Источник (релизер): Рип с диска.
Наличие сканов в содержимом раздачи: да
Треклист:
01.Mayibue
02.Reflections On A Mystic
03.Ebony Queen
04.Mystery Of Two
05.Liquid Magic / The Ruler
06.Walk With God
07.The Ruler (Take 2)
08.Ebony Queen (Take 2)
Personnel:
Ahmed Abdullah - Trumpet, Flugelhorn, Piano
Charles Brackeen - Saxophone [Tenor]
Malachi Favors - Bass
Alvin Fielder - DrumsRecorded on 16 February 1987, at Omega Audio, Dallas, Texas.
 
Лог создания рипа
Exact Audio Copy V1.0 beta 3 from 29. August 2011
Отчёт EAC об извлечении, выполненном 1. декабря 2011, 20:47
Ahmed Abdullah Quartet / Liquid Magic
Дисковод: Optiarc DVD RW AD-5200A Adapter: 0 ID: 1
Режим чтения : Достоверность
Использование точного потока : Да
Отключение кэша аудио : Да
Использование указателей C2 : Нет
Коррекция смещения при чтении : 48
Способность читать области Lead-in и Lead-out : Нет
Заполнение пропущенных сэмплов тишиной : Да
Удаление блоков с тишиной в начале и конце : Нет
При вычислениях CRC использовались нулевые сэмплы : Да
Интерфейс : Установленный внешний ASPI-интерфейс
Выходной формат : Пользовательский кодировщик
Выбранный битрейт : 128 kBit/s
Качество : Высокий
Добавление ID3-тега : Нет
Утилита сжатия : C:\Program Files\Monkey's Audio\MAC.exe
Дополнительные параметры : %source% %dest% -c3000
TOC извлечённого CD
Трек | Старт | Длительность | Начальный сектор | Конечный сектор
---------------------------------------------------------------------
1 | 0:00.73 | 7:37.00 | 73 | 34347
2 | 7:37.73 | 5:16.00 | 34348 | 58047
3 | 12:53.73 | 8:15.00 | 58048 | 95172
4 | 21:08.73 | 3:22.00 | 95173 | 110322
5 | 24:30.73 | 10:49.00 | 110323 | 158997
6 | 35:19.73 | 6:56.00 | 158998 | 190197
7 | 42:15.73 | 9:22.00 | 190198 | 232347
8 | 51:37.73 | 8:33.00 | 232348 | 270822
Характеристики диапазона извлечения и сообщения об ошибках
Выбранный диапазон
Имя файла F:\1988.Ahmed Abdullah Quartet - Liquid Magic\Ahmed Abdullah Quartet - Liquid Magic.wav
Пиковый уровень 86.4 %
Скорость извлечения 3.5 X
Качество диапазона 100.0 %
CRC теста 0BDA238A
CRC копии 0BDA238A
Копирование... OK
Ошибок не произошло
AccurateRip: сводка
Трек 1 точность не определена (достоверность 2) [9729AF82], AccurateRip вернул [D3DAA149] (AR v2)
Трек 2 точность не определена (достоверность 2) [78FDAC2B], AccurateRip вернул [326E4C19] (AR v2)
Трек 3 точность не определена (достоверность 2) [55C12F62], AccurateRip вернул [4DA8D4B9] (AR v2)
Трек 4 точность не определена (достоверность 2) [F2C23D69], AccurateRip вернул [936D8E98] (AR v2)
Трек 5 точность не определена (достоверность 2) [C5FE1027], AccurateRip вернул [11AB9C11] (AR v2)
Трек 6 точность не определена (достоверность 2) [50514978], AccurateRip вернул [8CAB5FE9] (AR v2)
Трек 7 точность не определена (достоверность 2) [B9CF192E], AccurateRip вернул [35593451] (AR v2)
Трек 8 точность не определена (достоверность 2) [EB430BB2], AccurateRip вернул [27F28554] (AR v2)
Ни один трек не прошёл проверки на точность
В вашей базе может быть иной вариант штамповки диска
Конец отчёта
==== Контрольная сумма отчёта D0AAC26AE9835DA257EA235A619268146DDADF530475D16D047F96A592B232F7 ====
 
Содержание индексной карты (.CUE)
REM GENRE Jazz
REM DATE 1988
REM DISCID 6B0E1A08
REM COMMENT "ExactAudioCopy v1.0b3"
PERFORMER "Ahmed Abdullah Quartet"
TITLE "Liquid Magic"
FILE "Ahmed Abdullah Quartet - Liquid Magic.ape" WAVE
TRACK 01 AUDIO
TITLE "Mayibue"
PERFORMER "Ahmed Abdullah Quartet"
INDEX 00 00:00:00
INDEX 01 00:00:73
TRACK 02 AUDIO
TITLE "Reflections On A Mystic"
PERFORMER "Ahmed Abdullah Quartet"
INDEX 00 07:34:15
INDEX 01 07:37:73
TRACK 03 AUDIO
TITLE "Ebony Queen"
PERFORMER "Ahmed Abdullah Quartet"
INDEX 00 12:50:55
INDEX 01 12:53:73
TRACK 04 AUDIO
TITLE "Mystery Of Two"
PERFORMER "Ahmed Abdullah Quartet"
INDEX 00 21:04:18
INDEX 01 21:08:73
TRACK 05 AUDIO
TITLE "Liquid Magic / The Ruler"
PERFORMER "Ahmed Abdullah Quartet"
INDEX 00 24:27:10
INDEX 01 24:30:73
TRACK 06 AUDIO
TITLE "Walk With God"
PERFORMER "Ahmed Abdullah Quartet"
INDEX 00 35:16:00
INDEX 01 35:19:73
TRACK 07 AUDIO
TITLE "The Ruler (Take 2)"
PERFORMER "Ahmed Abdullah Quartet"
INDEX 00 42:12:20
INDEX 01 42:15:73
TRACK 08 AUDIO
TITLE "Ebony Queen (Take 2)"
PERFORMER "Ahmed Abdullah Quartet"
INDEX 00 51:34:70
INDEX 01 51:37:73
По всем вопросам пишите личное сообщение пользователю M0p94ok.
08:52
392
Нет комментариев. Ваш будет первым!