Вы используете незарегистрированную версию компонента "Вкладки"!

Поиск

(Contemporary Improvisations, Avant-Garde) Babits Antal - Lorinszky Attila - Lament - 2000, FLAC (tracks+.cue) lossless

Треклист:
Babits Antal - Lorinszky Attila - Lament
Жанр: Contemporary Improvisations, Avant-Garde
Страна-производитель диска: Hungary
Год издания диска: 2000
Издатель (лейбл): Fono Records
Номер по каталогу: FA-905-2
Аудио кодек: FLAC (*.flac)
Тип рипа: tracks+.cue
Битрейт аудио: lossless
Продолжительность: 1:05:18
Источник (релизер): собственный рип с оригинального диска.
Наличие сканов в содержимом раздачи: да
Треклист:
01. Lament - Homage to Bartok and Kodaly
02. "Banana Jazz" from Diak-Sziget
03. The Cock Crows
04. Meditation
05. Chorale Improvisation for Albert Ayler
06. Variation on Bartok
07. Hiroshima
 
Лог создания рипа
Exact Audio Copy V0.99 prebeta 5 from 4. May 2009
EAC extraction logfile from 7. April 2011, 23:36
Babits Antal - Lorinszky Attila / Lament
Used drive : TSSTcorpCDDVDW SH-S222A Adapter: 1 ID: 0
Read mode : Secure
Utilize accurate stream : Yes
Defeat audio cache : Yes
Make use of C2 pointers : No
Read offset correction : 6
Overread into Lead-In and Lead-Out : No
Fill up missing offset samples with silence : Yes
Delete leading and trailing silent blocks : No
Null samples used in CRC calculations : Yes
Used interface : Installed external ASPI interface
Gap handling : Appended to previous track
Used output format : User Defined Encoder
Selected bitrate : 768 kBit/s
Quality : High
Add ID3 tag : No
Command line compressor : C:\Tool\Compress\FLAC\flac.exe
Additional command line options : -8 -V -T "ARTIST=%a" -T "TITLE=%t" -T "ALBUM=%g" -T "DATE=%y" -T "TRACKNUMBER=%n" -T "TOTALTRACKS=%x" -T "GENRE=%m" -T "ALBUM ARTIST=%v" -T "COMMENT=EAC V0.99 prebeta 5, Secure Mode, Test & Copy, AccurateRip, FLAC -8" %s
TOC of the extracted CD
Track | Start | Length | Start sector | End sector
---------------------------------------------------------
1 | 0:00.00 | 11:03.72 | 0 | 49796
2 | 11:03.72 | 5:53.72 | 49797 | 76343
3 | 16:57.69 | 14:48.07 | 76344 | 142950
4 | 31:46.01 | 11:07.36 | 142951 | 193011
5 | 42:53.37 | 6:44.48 | 193012 | 223359
6 | 49:38.10 | 5:41.60 | 223360 | 248994
7 | 55:19.70 | 9:57.17 | 248995 | 293786
Track 1
Filename C:\! UPLOAD\Babits Antal - Lorinszky Attila - Lament (2000) [FLAC] {Fono}\01 - Lament - Homage to Bartok and Kodaly.wav
Pre-gap length 0:00:02.00
Peak level 42.6 %
Track quality 100.0 %
Test CRC 796CDD5D
Copy CRC 796CDD5D
Track not present in AccurateRip database
Copy OK
Track 2
Filename C:\! UPLOAD\Babits Antal - Lorinszky Attila - Lament (2000) [FLAC] {Fono}\02 - Banana Jazz.wav
Pre-gap length 0:00:07.98
Peak level 45.2 %
Track quality 99.9 %
Test CRC 74BE094D
Copy CRC 74BE094D
Track not present in AccurateRip database
Copy OK
Track 3
Filename C:\! UPLOAD\Babits Antal - Lorinszky Attila - Lament (2000) [FLAC] {Fono}\03 - The Cock Crows.wav
Pre-gap length 0:00:07.82
Peak level 40.6 %
Track quality 100.0 %
Test CRC 086C2DBD
Copy CRC 086C2DBD
Track not present in AccurateRip database
Copy OK
Track 4
Filename C:\! UPLOAD\Babits Antal - Lorinszky Attila - Lament (2000) [FLAC] {Fono}\04 - Meditation.wav
Pre-gap length 0:00:07.85
Peak level 38.3 %
Track quality 100.0 %
Test CRC F1369032
Copy CRC F1369032
Track not present in AccurateRip database
Copy OK
Track 5
Filename C:\! UPLOAD\Babits Antal - Lorinszky Attila - Lament (2000) [FLAC] {Fono}\05 - Chorale Improvisation For Albert Ayler.wav
Pre-gap length 0:00:08.00
Peak level 31.0 %
Track quality 100.0 %
Test CRC AF76FFD6
Copy CRC AF76FFD6
Track not present in AccurateRip database
Copy OK
Track 6
Filename C:\! UPLOAD\Babits Antal - Lorinszky Attila - Lament (2000) [FLAC] {Fono}\06 - Variation On Bartok.wav
Pre-gap length 0:00:08.01
Peak level 41.7 %
Track quality 100.0 %
Test CRC B88101D9
Copy CRC B88101D9
Track not present in AccurateRip database
Copy OK
Track 7
Filename C:\! UPLOAD\Babits Antal - Lorinszky Attila - Lament (2000) [FLAC] {Fono}\07 - Hiroshima.wav
Pre-gap length 0:00:08.18
Peak level 45.2 %
Track quality 100.0 %
Test CRC B266BC0A
Copy CRC B266BC0A
Track not present in AccurateRip database
Copy OK
None of the tracks are present in the AccurateRip database
No errors occurred
End of status report
 
Содержание индексной карты (.CUE)
REM GENRE Jazz
REM DATE 2000
REM DISCID 5F0F4D07
REM COMMENT "ExactAudioCopy v0.99pb5"
PERFORMER "Babits Antal - Lorinszky Attila"
TITLE "Lament"
FILE "01 - Lament - Homage to Bartok and Kodaly.wav" WAVE
TRACK 01 AUDIO
TITLE "Lament - Homage to Bartok and Kodaly"
PERFORMER "Babits Antal - Lorinszky Attila"
INDEX 01 00:00:00
TRACK 02 AUDIO
TITLE "Banana Jazz"
PERFORMER "Babits Antal - Lorinszky Attila"
INDEX 00 10:55:73
FILE "02 - Banana Jazz.wav" WAVE
INDEX 01 00:00:00
TRACK 03 AUDIO
TITLE "The Cock Crows"
PERFORMER "Babits Antal - Lorinszky Attila"
INDEX 00 05:46:10
FILE "03 - The Cock Crows.wav" WAVE
INDEX 01 00:00:00
TRACK 04 AUDIO
TITLE "Meditation"
PERFORMER "Babits Antal - Lorinszky Attila"
INDEX 00 14:40:18
FILE "04 - Meditation.wav" WAVE
INDEX 01 00:00:00
TRACK 05 AUDIO
TITLE "Chorale Improvisation For Albert Ayler"
PERFORMER "Babits Antal - Lorinszky Attila"
INDEX 00 10:59:36
FILE "05 - Chorale Improvisation For Albert Ayler.wav" WAVE
INDEX 01 00:00:00
TRACK 06 AUDIO
TITLE "Variation On Bartok"
PERFORMER "Babits Antal - Lorinszky Attila"
INDEX 00 06:36:47
FILE "06 - Variation On Bartok.wav" WAVE
INDEX 01 00:00:00
TRACK 07 AUDIO
TITLE "Hiroshima"
PERFORMER "Babits Antal - Lorinszky Attila"
INDEX 00 05:33:46
FILE "07 - Hiroshima.wav" WAVE
INDEX 01 00:00:00
Доп. информация:
Recorded on Concerts:
Mediawave Festival, Gyor
Diak-sziget Festival, Budapest
Time-Bridge 2000 Festival, Szentendre
Synagogue, Nagykanizsa
 
Состав
Babits Antal - clarinet (3,7), bassclarinet (2,4,6), taragot (1,5)
Lorinszky Attila - double bass
Any questions -> support@pro-jazz.com. По всем вопросам пишите -> support@pro-jazz.com
10:52
144
Нет комментариев. Ваш будет первым!