Поиск

(Contemporary Ethnic Jazz) [CD] Eli Degibri - Cliff Hangin' - 2015, FLAC (tracks+.cue), lossless

(Contemporary Ethnic Jazz) [CD] Eli Degibri - Cliff Hangin' - 2015, FLAC (tracks+.cue), lossless
Треклист:
Eli Degibri / Cliff Hangin'
Жанр: Contemporary Ethnic Jazz
Носитель: CD
Издатель (лейбл): degibri RECORDS
Страна-производитель диска (релиза): Israel
Год издания: 2015
Аудиокодек: FLAC (*.flac)
Тип рипа: tracks+.cue
Битрейт аудио: lossless
Продолжительность: 50:03
Источник (релизер): Интернет
Наличие сканов в содержимом раздачи: нет
Треклист:
1. The Troll
2. Cliff Hangin'
3. Even Bees Do It
4. Suki The Cat
5. Twiced
6. SheshBesh
7. MomentoFugaz
8. The Unknown Neighbor
9. What Am I Doing Here
 
Лог создания рипа
X Lossless Decoder version 20141129a (148.2)
XLD extraction logfile from 2015-09-07 16:51:48 +0900
Eli Degibri / Cliff Hangin'
Used drive : HL-DT-ST DVDRW GX50N (revision RR06)
Media type : Pressed CD
Ripper mode : XLD Secure Ripper
Disable audio cache : OK for the drive with a cache less than 1375KiB
Make use of C2 pointers : NO
Read offset correction : 6
Max retry count : 20
Gap status : Analyzed, Appended (except HTOA)
TOC of the extracted CD
Track | Start | Length | Start sector | End sector
---------------------------------------------------------
1 | 00:00:00 | 03:47:13 | 0 | 17037
2 | 03:47:13 | 05:45:57 | 17038 | 42969
3 | 09:32:70 | 02:26:55 | 42970 | 53974
4 | 11:59:50 | 05:17:07 | 53975 | 77756
5 | 17:16:57 | 04:57:03 | 77757 | 100034
6 | 22:13:60 | 05:22:54 | 100035 | 124238
7 | 27:36:39 | 04:09:13 | 124239 | 142926
8 | 31:45:52 | 04:48:50 | 142927 | 164576
9 | 36:34:27 | 04:03:44 | 164577 | 182845
10 | 40:37:71 | 04:55:62 | 182846 | 205032
11 | 45:33:58 | 04:59:15 | 205033 | 227472
AccurateRip Summary
Disc not found in AccurateRip DB.
All Tracks
Album gain : -4.97 dB
Peak : 0.955078
Statistics
Read error : 0
Jitter error (maybe fixed) : 0
Retry sector count : 0
Damaged sector count : 0
Track 01
Filename : /Volumes/z-Yard/Music/!most/Eli Degibri/2015 - Cliff Hangin' (SONG X 032)/01 - The Troll.flac
Pre-gap length : 00:02:00
Track gain : -4.45 dB
Peak : 0.944214
CRC32 hash (test run) : 206E9E18
CRC32 hash : 206E9E18
CRC32 hash (skip zero) : BFC78DFC
AccurateRip v1 signature : 3C30AC66
AccurateRip v2 signature : 4817E7AA
->Track not present in AccurateRip database.
Statistics
Read error : 0
Jitter error (maybe fixed) : 0
Retry sector count : 0
Damaged sector count : 0
Track 02
Filename : /Volumes/z-Yard/Music/!most/Eli Degibri/2015 - Cliff Hangin' (SONG X 032)/02 - Cliff Hangin'.flac
Pre-gap length : 00:02:44
Track gain : -4.54 dB
Peak : 0.943207
CRC32 hash (test run) : D466ADD0
CRC32 hash : D466ADD0
CRC32 hash (skip zero) : 529B7088
AccurateRip v1 signature : 08EA2CA0
AccurateRip v2 signature : AD7B6B5A
->Track not present in AccurateRip database.
Statistics
Read error : 0
Jitter error (maybe fixed) : 0
Retry sector count : 0
Damaged sector count : 0
Track 03
Filename : /Volumes/z-Yard/Music/!most/Eli Degibri/2015 - Cliff Hangin' (SONG X 032)/03 - Even Bees Do It.flac
Pre-gap length : 00:02:16
Track gain : -4.27 dB
Peak : 0.938538
CRC32 hash (test run) : AE9BB8AF
CRC32 hash : AE9BB8AF
CRC32 hash (skip zero) : 40FB843F
AccurateRip v1 signature : 57EC5B59
AccurateRip v2 signature : 0A42CA00
->Track not present in AccurateRip database.
Statistics
Read error : 0
Jitter error (maybe fixed) : 0
Retry sector count : 0
Damaged sector count : 0
Track 04
Filename : /Volumes/z-Yard/Music/!most/Eli Degibri/2015 - Cliff Hangin' (SONG X 032)/04 - Kind of Blues.flac
Pre-gap length : 00:01:73
Track gain : -4.45 dB
Peak : 0.943665
CRC32 hash (test run) : 9BD4A82B
CRC32 hash : 9BD4A82B
CRC32 hash (skip zero) : CA1D0CE7
AccurateRip v1 signature : 417D9B86
AccurateRip v2 signature : 61CE7879
->Track not present in AccurateRip database.
Statistics
Read error : 0
Jitter error (maybe fixed) : 0
Retry sector count : 0
Damaged sector count : 0
Track 05
Filename : /Volumes/z-Yard/Music/!most/Eli Degibri/2015 - Cliff Hangin' (SONG X 032)/05 - Suki the Cat.flac
Pre-gap length : 00:02:32
Track gain : -5.87 dB
Peak : 0.949890
CRC32 hash (test run) : 3C89983C
CRC32 hash : 3C89983C
CRC32 hash (skip zero) : DB216416
AccurateRip v1 signature : FFE9B6A9
AccurateRip v2 signature : 10949EAB
->Track not present in AccurateRip database.
Statistics
Read error : 0
Jitter error (maybe fixed) : 0
Retry sector count : 0
Damaged sector count : 0
Track 06
Filename : /Volumes/z-Yard/Music/!most/Eli Degibri/2015 - Cliff Hangin' (SONG X 032)/06 - Twiced.flac
Pre-gap length : 00:03:10
Track gain : -5.75 dB
Peak : 0.952240
CRC32 hash (test run) : 7DE796D4
CRC32 hash : 7DE796D4
CRC32 hash (skip zero) : F958814B
AccurateRip v1 signature : C1531525
AccurateRip v2 signature : 5E9EB2C4
->Track not present in AccurateRip database.
Statistics
Read error : 0
Jitter error (maybe fixed) : 0
Retry sector count : 0
Damaged sector count : 0
Track 07
Filename : /Volumes/z-Yard/Music/!most/Eli Degibri/2015 - Cliff Hangin' (SONG X 032)/07 - Ocean View.flac
Pre-gap length : 00:02:39
Track gain : -5.10 dB
Peak : 0.941132
CRC32 hash (test run) : BDC75F7F
CRC32 hash : BDC75F7F
CRC32 hash (skip zero) : 04A1C7B4
AccurateRip v1 signature : 595EAA85
AccurateRip v2 signature : 0AC1470A
->Track not present in AccurateRip database.
Statistics
Read error : 0
Jitter error (maybe fixed) : 0
Retry sector count : 0
Damaged sector count : 0
Track 08
Filename : /Volumes/z-Yard/Music/!most/Eli Degibri/2015 - Cliff Hangin' (SONG X 032)/08 - SheshBesh.flac
Pre-gap length : 00:02:27
Track gain : -5.69 dB
Peak : 0.955078
CRC32 hash (test run) : A6EE8A29
CRC32 hash : A6EE8A29
CRC32 hash (skip zero) : 66ADB357
AccurateRip v1 signature : 94DF89BF
AccurateRip v2 signature : 984F6EEB
->Track not present in AccurateRip database.
Statistics
Read error : 0
Jitter error (maybe fixed) : 0
Retry sector count : 0
Damaged sector count : 0
Track 09
Filename : /Volumes/z-Yard/Music/!most/Eli Degibri/2015 - Cliff Hangin' (SONG X 032)/09 - MomentoFugaz.flac
Pre-gap length : 00:00:70
Track gain : -4.43 dB
Peak : 0.942047
CRC32 hash (test run) : 5BB14E25
CRC32 hash : 5BB14E25
CRC32 hash (skip zero) : E770BB70
AccurateRip v1 signature : AAA3D036
AccurateRip v2 signature : 166A12E7
->Track not present in AccurateRip database.
Statistics
Read error : 0
Jitter error (maybe fixed) : 0
Retry sector count : 0
Damaged sector count : 0
Track 10
Filename : /Volumes/z-Yard/Music/!most/Eli Degibri/2015 - Cliff Hangin' (SONG X 032)/10 - The Unknown Neighbor.flac
Pre-gap length : 00:02:22
Track gain : -3.05 dB
Peak : 0.937958
CRC32 hash (test run) : 51B123A6
CRC32 hash : 51B123A6
CRC32 hash (skip zero) : B1B0AC56
AccurateRip v1 signature : A40F3463
AccurateRip v2 signature : C2EA488B
->Track not present in AccurateRip database.
Statistics
Read error : 0
Jitter error (maybe fixed) : 0
Retry sector count : 0
Damaged sector count : 0
Track 11
Filename : /Volumes/z-Yard/Music/!most/Eli Degibri/2015 - Cliff Hangin' (SONG X 032)/11 - What Am I Doing Here.flac
Pre-gap length : 00:03:24
Track gain : -4.76 dB
Peak : 0.944427
CRC32 hash (test run) : 9553A5E1
CRC32 hash : 9553A5E1
CRC32 hash (skip zero) : 754C43D1
AccurateRip v1 signature : 6935021A
AccurateRip v2 signature : 729EB815
->Track not present in AccurateRip database.
Statistics
Read error : 0
Jitter error (maybe fixed) : 0
Retry sector count : 0
Damaged sector count : 0
No errors occurred
End of status report
-----BEGIN XLD SIGNATURE-----
mjCVmv_qt0Qam89cPBGL4xvDw1QP3MUhKIzAwcZ9ZfWkfIs0WTrwj6wicGQgAJuAditSKQOjgNy7kLlRMNMxhv0cid2lOv2yFEQLdZ4
-----END XLD SIGNATURE-----
 
Содержание индексной карты (.CUE)
TITLE "Cliff Hangin'"
PERFORMER "Eli Degibri"
CATALOG 0797776002955
REM GENRE "Jazz"
REM DATE "2015"
REM DISCID 9B0BD80B
REM REPLAYGAIN_ALBUM_GAIN -4.97 dB
REM REPLAYGAIN_ALBUM_PEAK 0.955078
FILE "01 - The Troll.flac" WAVE
TRACK 01 AUDIO
TITLE "The Troll"
ISRC IL6301500001
FLAGS DCP
REM COMMENT "Eli Degibri: tenor saxophone; Gadi Lehavi: piano; Barak Mori: bass; Ofri Nehemya: drums. SONG X 032 Zer0's archive"
REM REPLAYGAIN_TRACK_GAIN -4.45 dB
REM REPLAYGAIN_TRACK_PEAK 0.944214
INDEX 01 00:00:00
TRACK 02 AUDIO
TITLE "Cliff Hangin'"
ISRC IL6301500002
FLAGS DCP
REM COMMENT "Eli Degibri: tenor saxophone; Gadi Lehavi: piano; Barak Mori: bass; Ofri Nehemya: drums. SONG X 032 Zer0's archive"
REM REPLAYGAIN_TRACK_GAIN -4.54 dB
REM REPLAYGAIN_TRACK_PEAK 0.943207
INDEX 00 03:44:44
FILE "02 - Cliff Hangin'.flac" WAVE
INDEX 01 00:00:00
TRACK 03 AUDIO
TITLE "Even Bees Do It"
ISRC IL6301500003
FLAGS DCP
REM COMMENT "Eli Degibri: soprano saxophone; Gadi Lehavi: piano; Barak Mori: bass; Ofri Nehemya: drums. SONG X 032 Zer0's archive"
REM REPLAYGAIN_TRACK_GAIN -4.27 dB
REM REPLAYGAIN_TRACK_PEAK 0.938538
INDEX 00 05:43:41
FILE "03 - Even Bees Do It.flac" WAVE
INDEX 01 00:00:00
TRACK 04 AUDIO
TITLE "Kind of Blues"
ISRC IL6301500004
FLAGS DCP
REM COMMENT "Eli Degibri: tenor saxophone; Gadi Lehavi: piano; Barak Mori: bass; Ofri Nehemya: drums. SONG X 032 Zer0's archive"
REM REPLAYGAIN_TRACK_GAIN -4.45 dB
REM REPLAYGAIN_TRACK_PEAK 0.943665
INDEX 00 02:24:57
FILE "04 - Kind of Blues.flac" WAVE
INDEX 01 00:00:00
TRACK 05 AUDIO
TITLE "Suki the Cat"
ISRC IL6301500005
FLAGS DCP
REM COMMENT "Eli Degibri: tenor saxophone; Gadi Lehavi: piano; Barak Mori: bass; Ofri Nehemya: drums. SONG X 032 Zer0's archive"
REM REPLAYGAIN_TRACK_GAIN -5.87 dB
REM REPLAYGAIN_TRACK_PEAK 0.949890
INDEX 00 05:14:50
FILE "05 - Suki the Cat.flac" WAVE
INDEX 01 00:00:00
TRACK 06 AUDIO
TITLE "Twiced"
ISRC IL6301500006
FLAGS DCP
REM COMMENT "Eli Degibri: tenor saxophone; Gadi Lehavi: piano; Barak Mori: bass; Ofri Nehemya: drums. SONG X 032 Zer0's archive"
REM REPLAYGAIN_TRACK_GAIN -5.75 dB
REM REPLAYGAIN_TRACK_PEAK 0.952240
INDEX 00 04:53:68
FILE "06 - Twiced.flac" WAVE
INDEX 01 00:00:00
TRACK 07 AUDIO
TITLE "Ocean View"
ISRC IL6301500007
FLAGS DCP
REM COMMENT "Eli Degibri: soprano saxophone; Gadi Lehavi: piano; Barak Mori: bass; Ofri Nehemya: drums. SONG X 032 Zer0's archive"
REM REPLAYGAIN_TRACK_GAIN -5.10 dB
REM REPLAYGAIN_TRACK_PEAK 0.941132
INDEX 00 05:20:15
FILE "07 - Ocean View.flac" WAVE
INDEX 01 00:00:00
TRACK 08 AUDIO
TITLE "SheshBesh"
ISRC IL6301500008
FLAGS DCP
REM COMMENT "Eli Degibri: tenor saxophone; Gadi Lehavi: piano; Barak Mori: bass; Ofri Nehemya: drums. SONG X 032 Zer0's archive"
REM REPLAYGAIN_TRACK_GAIN -5.69 dB
REM REPLAYGAIN_TRACK_PEAK 0.955078
INDEX 00 04:06:61
FILE "08 - SheshBesh.flac" WAVE
INDEX 01 00:00:00
TRACK 09 AUDIO
TITLE "MomentoFugaz"
ISRC IL6301500009
FLAGS DCP
REM COMMENT "Eli Degibri: tenor saxophone; Gadi Lehavi: piano; Barak Mori: bass; Ofri Nehemya: drums. SONG X 032 Zer0's archive"
REM REPLAYGAIN_TRACK_GAIN -4.43 dB
REM REPLAYGAIN_TRACK_PEAK 0.942047
INDEX 00 04:47:55
FILE "09 - MomentoFugaz.flac" WAVE
INDEX 01 00:00:00
TRACK 10 AUDIO
TITLE "The Unknown Neighbor"
ISRC IL6301500010
FLAGS DCP
REM COMMENT "Eli Degibri: soprano saxophone; Gadi Lehavi: piano; Barak Mori: bass; Ofri Nehemya: drums. SONG X 032 Zer0's archive"
REM REPLAYGAIN_TRACK_GAIN -3.05 dB
REM REPLAYGAIN_TRACK_PEAK 0.937958
INDEX 00 04:01:22
FILE "10 - The Unknown Neighbor.flac" WAVE
INDEX 01 00:00:00
TRACK 11 AUDIO
TITLE "What Am I Doing Here"
ISRC IL6301500011
FLAGS DCP
REM COMMENT "Eli Degibri: tenor saxophone; Gadi Lehavi: piano; Barak Mori: bass; Ofri Nehemya: drums. SONG X 032 Zer0's archive"
REM REPLAYGAIN_TRACK_GAIN -4.76 dB
REM REPLAYGAIN_TRACK_PEAK 0.944427
INDEX 00 04:52:38
FILE "11 - What Am I Doing Here.flac" WAVE
INDEX 01 00:00:00
 
Доп. информация
Cliff Hangin' Liner Notes by Vincent Bessières
You need guts when you’ve not yet reached twenty years of age and aim to become a jazz musician sharing the stage with those who wrote some of the most important pages in the history of this music. You most assuredly need guts, but you also need talent in order for such seasoned musicians to put their trust in you. In an art where oral tradition goes hand in hand with apprenticeship, being invited into a group conducted by a more experienced musician is a kind of validation, but also a baptism by fire. This is what happened to Eli Degibri when, at the age of 19, only a few months after graduating from the Thelonious Monk Institute, he was hired by Herbie Hancock for a worldwide tour, and again three years later, when drummer Al Foster, a sideman with Miles Davis and Joe Henderson, took the new tenor under his wing and ended up keeping him in his quintet for nearly a decade. This is how jazz is really learned, on the proving ground of the stage and by contact—which may sometimes be rough—with those to whom the music was passed down by its creators.
Even though Eli Degibri has not yet turned forty himself, the time has arrived for him to become part of this chain and transmit some of his own experience to musicians hardly older than he was when he was picked out by Herbie Hancock. This is one of the reasons he’s been leading this particular band since he returned to Tel Aviv after fifteen years in the United States. It has brought forth two musicians, whose talent is undeniable and destined to shine for a long time: pianist Gadi Lehavi (born in 1996) and drummer Ofri Nehemya (born in 1994). The Land of Israel has turned out to be particularly fertile for jazz since such pioneers as Avishai Cohen, Omer Avital and Eli Degibri himself blazed the trail. It appears that the flowering of gifted Israeli musicians has not stopped, nor has the enthusiasm of its youth subsided for a musical language that might have seemed somewhat removed from it, yet has become a vital vehicle of expression. Since he spent over ten years frequently hanging and playing with some of the most important musicians of the New York scene, such as Brad Mehldau, Kurt Rosenwinkel or Jeff Ballard, Eli Degibri is evidently a landmark figure for those young musicians. But Eli would not have wished to form a quartet or to record a new album with them had he not sensed in them the spark distinguishing future great musicians from simply gifted instrumentalists. Degibri also knew that he could count on support from Barak Mori on double bass, who too tried his hand (successfully) at experiencing the American adventure.
This album is the fruit of labor by a genuine group. You can hear it in the intensity of the interpretations of the leader's compositions invested by his partners, who display youthful ardor but also an obvious ease with jazz which they handle with the greatest naturalness. But the one who confirms that he ranks among the major tenors, and who stands out from the crowd loud and clear, is Eli Degibri himself, continuously affirming his breathtaking mastery and swirling lyricism which turns everything upside down as it goes by. In this purportedly well-defined quartet format, with an authority that tolerates no contradiction Degibri imposes an energetic, swift style that risks all and never approaches matters halfway, appearing to be free of instrumental constraints. Pushing the limits, he numbers among those saxophone players whose style is constantly on the edge, for whom every chorus is played out as if it were the last.
Having written material for this album that plays with rhythmical patterns and returns to the basics, most notably the blues, Eli Degibri offers up compositions that are as playful as they are evocative, showing in the up-tempo passages an impression of confidence commanding respect. It is rare in our time to hear a tenor that makes use of such a large expressive range: alternately sharp and mellow, funky or caressing, sometimes on the verge of bursting with the urgency of his playing. Resolutely attached to melody, to the point of once again inviting singer Shlomo Ydov to record with him, Degibri reveals (on the lesser-heard soprano sax) precision in his lines that hits home.
To have seen Eli Degibri in action once is enough to know how much he contrasts with the man he is off-stage. Once the saxophone enters his mouth, this serious, sober, calm and quiet man reveals himself animated with an unpredictable urgency. He is not the first among the great jazz saxophonists to present such a disparity in regard to his temperament, which makes his performances stunning, as music seems to be running through his body. That contrast is a sign that playing music is not a simple exercise for the saxophonist but a true commitment at all times. The title Cliff Hangin' could not better capture this vertigo that holds all jazzmen in suspense, hanging above a void from the moment they start playing, providing the thrill of the music they let us hear. At the age of 37, just like at 19, Eli Degibri has neither given up offering himself this thrill nor passing it along to us.
Vincent Bessières
 
Состав
Eli Degibri : Tenor saxophone, soprano saxophone #3, #7, #10
Gadi Lehavi : Piano
Barak Mori : Bass
Ofri Nehemya : Drums
Shlomo Ydov : Vocal & Guitars on MomentoFugaz
19:56
266
Нет комментариев. Ваш будет первым!