Поиск

(Contemoprary Jazz) Kenny Garrett - Garrett 5 [#k32y6280] - 1989, FLAC (tracks+.cue), lossless

Треклист:
Kenny Garrett - Garrett 5
Жанр: Contemoprary Jazz
Год выпуска диска: 1989
Производитель диска: Germany \ King Record
Аудио кодек: FLAC
Тип рипа: tracks+.cue
Битрейт аудио: lossless
01 - Feeling Good [06:30]
02 - Little Dixie [05:25]
03 - But Beautiful [05:07]
04 - Little Melonae [06:38]
05 - Computer 'G' [06:21]
06 - La Bamba [04:38]
07 - Lee Hall's Blues [05:41]
08 - Tokyo Tower [06:02]
09 - Odoriko [07:15]
10 - United We Waltz [06:15]
Собственноручный рип с оригинального диска от funky_cat!
 
Log EAC
Exact Audio Copy V0.99 prebeta 5 from 4. May 2009
EAC extraction logfile from 8. May 2010, 17:27
Kenny Garrett / Garrett 5
Used drive : Optiarc DVD RW AD-5200A Adapter: 1 ID: 0
Read mode : Secure
Utilize accurate stream : Yes
Defeat audio cache : Yes
Make use of C2 pointers : No
Read offset correction : 48
Overread into Lead-In and Lead-Out : No
Fill up missing offset samples with silence : Yes
Delete leading and trailing silent blocks : No
Null samples used in CRC calculations : Yes
Used interface : Native Win32 interface for Win NT & 2000
Gap handling : Appended to previous track
Used output format : User Defined Encoder
Selected bitrate : 1024 kBit/s
Quality : High
Add ID3 tag : No
Command line compressor : C:\Program Files\FLAC\flac.exe
Additional command line options : -5 -V -T "ARTIST=%a" -T "TITLE=%t" -T "ALBUM=%g" -T "DATE=%y" -T "TRACKNUMBER=%n" -T "GENRE=%m" -T "COMMENT=Ripped by andygrakoff aka yetiisyou" %s
TOC of the extracted CD
Track | Start | Length | Start sector | End sector
---------------------------------------------------------
1 | 0:00.00 | 6:30.53 | 0 | 29302
2 | 6:30.53 | 5:25.32 | 29303 | 53709
3 | 11:56.10 | 5:07.52 | 53710 | 76786
4 | 17:03.62 | 6:38.10 | 76787 | 106646
5 | 23:41.72 | 6:21.12 | 106647 | 135233
6 | 30:03.09 | 4:38.40 | 135234 | 156123
7 | 34:41.49 | 5:41.14 | 156124 | 181712
8 | 40:22.63 | 6:02.37 | 181713 | 208899
9 | 46:25.25 | 7:15.59 | 208900 | 241583
10 | 53:41.09 | 6:15.14 | 241584 | 269722
Track 1
Filename E:\!Rips\Kenny Garrett - Garrett 5 (k32y6280) (1989)\01 - Feeling Good.wav
Pre-gap length 0:00:02.00
Peak level 100.0 %
Track quality 100.0 %
Test CRC 49311118
Copy CRC 49311118
Track not present in AccurateRip database
Copy OK
Track 2
Filename E:\!Rips\Kenny Garrett - Garrett 5 (k32y6280) (1989)\02 - Little Dixie.wav
Pre-gap length 0:00:00.01
Peak level 100.0 %
Track quality 99.9 %
Test CRC 7E52C6CB
Copy CRC 7E52C6CB
Track not present in AccurateRip database
Copy OK
Track 3
Filename E:\!Rips\Kenny Garrett - Garrett 5 (k32y6280) (1989)\03 - But Beautiful.wav
Pre-gap length 0:00:00.01
Peak level 75.3 %
Track quality 99.9 %
Test CRC C7834D70
Copy CRC C7834D70
Track not present in AccurateRip database
Copy OK
Track 4
Filename E:\!Rips\Kenny Garrett - Garrett 5 (k32y6280) (1989)\04 - Little Melonae.wav
Pre-gap length 0:00:00.01
Peak level 100.0 %
Track quality 99.9 %
Test CRC 73E7581F
Copy CRC 73E7581F
Track not present in AccurateRip database
Copy OK
Track 5
Filename E:\!Rips\Kenny Garrett - Garrett 5 (k32y6280) (1989)\05 - Computer 'G'.wav
Pre-gap length 0:00:00.01
Peak level 100.0 %
Track quality 100.0 %
Test CRC 523A9CB2
Copy CRC 523A9CB2
Track not present in AccurateRip database
Copy OK
Track 6
Filename E:\!Rips\Kenny Garrett - Garrett 5 (k32y6280) (1989)\06 - La Bamba.wav
Pre-gap length 0:00:00.01
Peak level 100.0 %
Track quality 100.0 %
Test CRC 534248CA
Copy CRC 534248CA
Track not present in AccurateRip database
Copy OK
Track 7
Filename E:\!Rips\Kenny Garrett - Garrett 5 (k32y6280) (1989)\07 - Lee Hall's Blues.wav
Pre-gap length 0:00:00.01
Peak level 100.0 %
Track quality 100.0 %
Test CRC 4AD9186C
Copy CRC 4AD9186C
Track not present in AccurateRip database
Copy OK
Track 8
Filename E:\!Rips\Kenny Garrett - Garrett 5 (k32y6280) (1989)\08 - Tokyo Tower.wav
Pre-gap length 0:00:00.01
Peak level 100.0 %
Track quality 100.0 %
Test CRC AA7F7F26
Copy CRC AA7F7F26
Track not present in AccurateRip database
Copy OK
Track 9
Filename E:\!Rips\Kenny Garrett - Garrett 5 (k32y6280) (1989)\09 - Odoriko.wav
Pre-gap length 0:00:00.01
Peak level 100.0 %
Track quality 100.0 %
Test CRC 24C1AC2E
Copy CRC 24C1AC2E
Track not present in AccurateRip database
Copy OK
Track 10
Filename E:\!Rips\Kenny Garrett - Garrett 5 (k32y6280) (1989)\10 - United We Waltz.wav
Pre-gap length 0:00:00.01
Peak level 90.2 %
Track quality 100.0 %
Test CRC C680FB21
Copy CRC C680FB21
Track not present in AccurateRip database
Copy OK
None of the tracks are present in the AccurateRip database
No errors occurred
End of status report
 
CUE
REM GENRE Postbop
REM DATE 1989
REM DISCID 7B0E0C0A
REM COMMENT "ExactAudioCopy v0.99pb5"
PERFORMER "Kenny Garrett"
TITLE "Garrett 5"
FILE "01 - Feeling Good.wav" WAVE
TRACK 01 AUDIO
TITLE "Feeling Good"
PERFORMER "Kenny Garrett"
INDEX 01 00:00:00
TRACK 02 AUDIO
TITLE "Little Dixie"
PERFORMER "Kenny Garrett"
INDEX 00 06:30:52
FILE "02 - Little Dixie.wav" WAVE
INDEX 01 00:00:00
TRACK 03 AUDIO
TITLE "But Beautiful"
PERFORMER "Kenny Garrett"
INDEX 00 05:25:31
FILE "03 - But Beautiful.wav" WAVE
INDEX 01 00:00:00
TRACK 04 AUDIO
TITLE "Little Melonae"
PERFORMER "Kenny Garrett"
INDEX 00 05:07:51
FILE "04 - Little Melonae.wav" WAVE
INDEX 01 00:00:00
TRACK 05 AUDIO
TITLE "Computer 'G'"
PERFORMER "Kenny Garrett"
INDEX 00 06:38:09
FILE "05 - Computer 'G'.wav" WAVE
INDEX 01 00:00:00
TRACK 06 AUDIO
TITLE "La Bamba"
PERFORMER "Kenny Garrett"
INDEX 00 06:21:11
FILE "06 - La Bamba.wav" WAVE
INDEX 01 00:00:00
TRACK 07 AUDIO
TITLE "Lee Hall's Blues"
PERFORMER "Kenny Garrett"
INDEX 00 04:38:39
FILE "07 - Lee Hall's Blues.wav" WAVE
INDEX 01 00:00:00
TRACK 08 AUDIO
TITLE "Tokyo Tower"
PERFORMER "Kenny Garrett"
INDEX 00 05:41:13
FILE "08 - Tokyo Tower.wav" WAVE
INDEX 01 00:00:00
TRACK 09 AUDIO
TITLE "Odoriko"
PERFORMER "Kenny Garrett"
INDEX 00 06:02:36
FILE "09 - Odoriko.wav" WAVE
INDEX 01 00:00:00
TRACK 10 AUDIO
TITLE "United We Waltz"
PERFORMER "Kenny Garrett"
INDEX 00 07:15:58
FILE "10 - United We Waltz.wav" WAVE
INDEX 01 00:00:00
Приватный:
Нет (DHT включён)
Размер:
369.45 Мб (387,394,024 байт) » файлов: 14
Участники:
0 раздают, 0 качают (0 участников всего)
Внешние участники:
3 раздают, 1 качают (4 участников всего) [ Обновить ]
For power users only: no seeders - write to support@pro-jazz.com. Для power user: нет сидеров - пишите на support@pro-jazz.com.
10:36
106
Нет комментариев. Ваш будет первым!