Поиск

(Classical) Lalo Schifrin - Letters from Argentina - 2006, APE (image + .cue), lossless

Lalo Schifrin - Letters from Argentina
Страна: USA (Предполагаемая страна производства)
Жанр: Classical
Год выпуска: 2006
Формат: APE (image + .cue)
Битрейт аудио: lossless
Продолжительность: 56 минут
Трэклист:
1. Tango del Atardecer
2. Pampas
3. Tango Borealis
4. Danza de los Montes
5. Tango a Borges
6. Resonancias
7. La Calle y la Luna
8. Malambo de los Llanos
 
Отчёт EAC
Exact Audio Copy V0.99 prebeta 4 from 23. January 2008
Отчёт EAC об извлечении, выполненном 15. апреля 2008, 22:31
Lalo Schifrin / Letters from Argentina
Дисковод: TEAC CD-W552G Adapter: 3 ID: 1
Режим чтения : Достоверность
Использование точного потока : Да
Отключение кэша аудио : Да
Использование указателей C2 : Нет
Коррекция смещения при чтении : 6
Способность читать области Lead-in и Lead-out : Нет
Заполнение пропущенных сэмплов тишиной : Да
Удаление блоков с тишиной в начале и конце : Нет
При вычислениях CRC использовались нулевые сэмплы : Нет
Интерфейс : Установленный внешний ASPI-интерфейс
Выходной формат : Внутренние WAV-операции
Формат сэмплов : 44.100 Гц; 16 бит; стерео
TOC извлечённого CD
Трек | Старт | Длительность | Начальный сектор | Конечный сектор
---------------------------------------------------------------------
1 | 0:00.00 | 4:53.38 | 0 | 22012
2 | 4:53.38 | 8:37.61 | 22013 | 60848
3 | 13:31.24 | 10:16.11 | 60849 | 107059
4 | 23:47.35 | 6:48.47 | 107060 | 137706
5 | 30:36.07 | 6:55.51 | 137707 | 168882
6 | 37:31.58 | 7:41.27 | 168883 | 203484
7 | 45:13.10 | 8:07.68 | 203485 | 240077
8 | 53:21.03 | 3:29.49 | 240078 | 255801
Характеристики диапазона извлечения и сообщения об ошибках
Выбранный диапазон
Имя файла C:\Documents and Settings\Максим\Рабочий стол\Lalo Schifrin - Letters from Argentina.wav
Пиковый уровень 98.8 %
Качество диапазона 99.9 %
CRC копии F4FFE168
Копирование... OK
Ошибок не произошло
Конец отчёта
Доп. информация:
Lalo Schifrin - ???
Lin Cho-Liang - Violin
Pablo Aslan - Upright bass
David Shifrin - Clarinet
Satoshi Takeishi - ???
Слушать http://www.millisong.com/index.cfm/hurl/idzAlbum/IdAlbumz10059/LangzRus/10059.htm
Lalo Schifrin - Jazz Meets The Symphony #6 http://rutracker.org/forum/viewtopic.php?t=761652
01:58
394
Нет комментариев. Ваш будет первым!