Поиск

(Classic Jazz/Bop) Dexter Gordon - With Wardell Gray (GOJ CD 53315) - 1998, APE (image+.cue), lossless

(Classic Jazz/Bop) Dexter Gordon - With Wardell Gray (GOJ CD 53315) - 1998, APE (image+.cue), lossless
Треклист:
Dexter Gordon / With Wardell Gray (GOJ CD 53315)
Жанр: Classic Jazz/Bop
Страна-производитель диска: Germany
Год издания: 1998
Издатель (лейбл): Giants Of Jazz
Номер по каталогу: 53315
Страна: USA
Аудиокодек: APE (*.ape)
Тип рипа: image+.cue
Битрейт аудио: lossless
Продолжительность: 71'24
Источник (релизер): Own rip
Наличие сканов в содержимом раздачи: да
Треклист:
01. The Chase
02. I Can't Escape From You
03. Dexter's Riff
04. Settin' The Pace Parts 1 & 2
05. So Easy
06. Dexter Rides Again
07. Long Tall Dexter
08. Ghost Of A Chance
09. Sweet And Lovely
10. Dexter Digs In
11. Dexter's Minor Mad
12. Blow Mr. Dexter
13. Dexter's Deck
14. Dexters Cuttin' Out
15. Iridescene
16. Iridescene
17. Mischievous Lady
18. Blues Bikini
19. It's The Talk Of The Town
20. The Duel
 
Лог создания рипа
Exact Audio Copy V1.0 beta 3 from 29. August 2011
EAC extraction logfile from 12. April 2013, 12:38
Dexter Gordon / With Wardell Gray (GOJ CD 53315)
Used drive  : HL-DT-STDVD-RAM GSA-H55N   Adapter: 0  ID: 0
Read mode               : Secure
Utilize accurate stream : Yes
Defeat audio cache      : Yes
Make use of C2 pointers : No
Read offset correction                      : 102
Overread into Lead-In and Lead-Out          : No
Fill up missing offset samples with silence : Yes
Delete leading and trailing silent blocks   : No
Null samples used in CRC calculations       : Yes
Used interface                              : Native Win32 interface for Win NT & 2000
Used output format              : Monkey's Audio Lossless Encoder
Selected bitrate                : Fast Lossless Compression
Quality                         : High
Add ID3 tag                     : Yes
Command line compressor         : C:\Program Files\Exact Audio Copy\Monkeys Audio\MAC.exe
Additional command line options : %dest% -t "Artist=%artist%" -t "Title=%title%" -t "Album=%albumtitle%" -t "Year=%year%" -t "Track=%tracknr%" -t "Genre=%genre%" mac.exe %source% %dest% -c3000 -v
TOC of the extracted CD
     Track |   Start  |  Length  | Start sector | End sector
    ---------------------------------------------------------
        1  |  0:00.00 |  6:34.48 |         0    |    29597
        2  |  6:34.48 |  3:19.09 |     29598    |    44531
        3  |  9:53.57 |  2:48.27 |     44532    |    57158
        4  | 12:42.09 |  5:56.17 |     57159    |    83875
        5  | 18:38.26 |  3:43.17 |     83876    |   100617
        6  | 22:21.43 |  3:18.43 |    100618    |   115510
        7  | 25:40.11 |  3:04.60 |    115511    |   129370
        8  | 28:44.71 |  3:05.00 |    129371    |   143245
        9  | 31:49.71 |  2:51.02 |    143246    |   156072
       10  | 34:40.73 |  3:00.40 |    156073    |   169612
       11  | 37:41.38 |  2:45.59 |    169613    |   182046
       12  | 40:27.22 |  3:00.55 |    182047    |   195601
       13  | 43:28.02 |  2:58.68 |    195602    |   209019
       14  | 46:26.70 |  3:10.45 |    209020    |   223314
       15  | 49:37.40 |  2:59.22 |    223315    |   236761
       16  | 52:36.62 |  2:54.18 |    236762    |   249829
       17  | 55:31.05 |  2:42.35 |    249830    |   262014
       18  | 58:13.40 |  3:37.27 |    262015    |   278316
       19  | 61:50.67 |  3:27.34 |    278317    |   293875
       20  | 65:18.26 |  7:24.60 |    293876    |   327235
Range status and errors
Selected range
     Filename E:\Muziek\Dexter Gordon - With Wardell Gray (GOJ CD 53315).wav
     Peak level 87.0 %
     Extraction speed 3.1 X
     Range quality 99.9 %
     Test CRC 8445B791
     Copy CRC 8445B791
     Copy OK
No errors occurred
AccurateRip summary
Track  1  cannot be verified as accurate (confidence 1)  [3DFE85F8], AccurateRip returned [605903ED]  (AR v2)
Track  2  cannot be verified as accurate (confidence 1)  [CAE0B202], AccurateRip returned [C5F1D2BE]  (AR v2)
Track  3  cannot be verified as accurate (confidence 1)  [33FC8284], AccurateRip returned [7BA13447]  (AR v2)
Track  4  cannot be verified as accurate (confidence 1)  [B3E1C845], AccurateRip returned [B3080FB9]  (AR v2)
Track  5  cannot be verified as accurate (confidence 1)  [0DA4D741], AccurateRip returned [94482713]  (AR v2)
Track  6  cannot be verified as accurate (confidence 1)  [975E408B], AccurateRip returned [8357DDAA]  (AR v2)
Track  7  cannot be verified as accurate (confidence 1)  [85AF27BF], AccurateRip returned [E1F40F6C]  (AR v2)
Track  8  cannot be verified as accurate (confidence 1)  [FE01C14D], AccurateRip returned [5E2066CC]  (AR v2)
Track  9  cannot be verified as accurate (confidence 1)  [8FE5A6A4], AccurateRip returned [CDCD62A8]  (AR v2)
Track 10  cannot be verified as accurate (confidence 1)  [1032CF5B], AccurateRip returned [7A065511]  (AR v2)
Track 11  cannot be verified as accurate (confidence 1)  [B3433FD9], AccurateRip returned [6A4072B3]  (AR v2)
Track 12  cannot be verified as accurate (confidence 1)  [A7BB4E63], AccurateRip returned [9989BE3A]  (AR v2)
Track 13  cannot be verified as accurate (confidence 1)  [D5A92021], AccurateRip returned [89907305]  (AR v2)
Track 14  cannot be verified as accurate (confidence 1)  [CBE22C9B], AccurateRip returned [6006D729]  (AR v2)
Track 15  cannot be verified as accurate (confidence 1)  [B46CBA58], AccurateRip returned [DB6810E4]  (AR v2)
Track 16  cannot be verified as accurate (confidence 1)  [CD60A2CE], AccurateRip returned [C570D226]  (AR v2)
Track 17  cannot be verified as accurate (confidence 1)  [A9DA338A], AccurateRip returned [865E9E81]  (AR v2)
Track 18  cannot be verified as accurate (confidence 1)  [BF28A9C4], AccurateRip returned [28F3E6BF]  (AR v2)
Track 19  cannot be verified as accurate (confidence 1)  [F0D626CD], AccurateRip returned [96C72493]  (AR v2)
Track 20  cannot be verified as accurate (confidence 1)  [915A8343], AccurateRip returned [D7C729E8]  (AR v2)
No tracks could be verified as accurate
You may have a different pressing from the one(s) in the database
End of status report
---- CUETools DB Plugin V2.1.3
[CTDB TOCID: .bm5knMUy0UX5bw8Q0YZLrBIE8A-] disk not present in database, Submit result: .bm5knMUy0UX5bw8Q0YZLrBIE8A- has been uploaded
==== Log checksum 7A30AE5D50DA52F3E57B4EF7A684F9BF657462156290B92B539F94E8CDB43A3F ====
 
 
Содержание индексной карты (.CUE)
REM GENRE Jazz
REM DATE 1998
REM DISCID 24110B14
REM COMMENT "ExactAudioCopy v1.0b3"
CATALOG 0000000000000
PERFORMER "Dexter Gordon"
TITLE "With Wardell Gray (GOJ CD 53315)"
FILE "Dexter Gordon - With Wardell Gray (GOJ CD 53315).ape" WAVE
  TRACK 01 AUDIO
    TITLE "The Chase"
    PERFORMER "Dexter Gordon"
    INDEX 01 00:00:00
  TRACK 02 AUDIO
    TITLE "I Can't Escape From You"
    PERFORMER "Dexter Gordon"
    INDEX 00 06:30:46
    INDEX 01 06:34:48
  TRACK 03 AUDIO
    TITLE "Dexter's Riff"
    PERFORMER "Dexter Gordon"
    INDEX 00 09:49:07
    INDEX 01 09:53:57
  TRACK 04 AUDIO
    TITLE "Settin' The Pace Parts 1 & 2"
    PERFORMER "Dexter Gordon"
    INDEX 00 12:36:52
    INDEX 01 12:42:09
  TRACK 05 AUDIO
    TITLE "So Easy"
    PERFORMER "Dexter Gordon"
    INDEX 00 18:33:65
    INDEX 01 18:38:26
  TRACK 06 AUDIO
    TITLE "Dexter Rides Again"
    PERFORMER "Dexter Gordon"
    INDEX 00 22:18:02
    INDEX 01 22:21:43
  TRACK 07 AUDIO
    TITLE "Long Tall Dexter"
    PERFORMER "Dexter Gordon"
    INDEX 00 25:35:72
    INDEX 01 25:40:11
  TRACK 08 AUDIO
    TITLE "Ghost Of A Chance"
    PERFORMER "Dexter Gordon"
    INDEX 00 28:42:03
    INDEX 01 28:44:71
  TRACK 09 AUDIO
    TITLE "Sweet And Lovely"
    PERFORMER "Dexter Gordon"
    INDEX 00 31:48:16
    INDEX 01 31:49:71
  TRACK 10 AUDIO
    TITLE "Dexter Digs In"
    PERFORMER "Dexter Gordon"
    INDEX 00 34:37:68
    INDEX 01 34:40:73
  TRACK 11 AUDIO
    TITLE "Dexter's Minor Mad"
    PERFORMER "Dexter Gordon"
    INDEX 00 37:37:09
    INDEX 01 37:41:38
  TRACK 12 AUDIO
    TITLE "Blow Mr. Dexter"
    PERFORMER "Dexter Gordon"
    INDEX 00 40:23:39
    INDEX 01 40:27:22
  TRACK 13 AUDIO
    TITLE "Dexter's Deck"
    PERFORMER "Dexter Gordon"
    INDEX 00 43:24:09
    INDEX 01 43:28:02
  TRACK 14 AUDIO
    TITLE "Dexters Cuttin' Out"
    PERFORMER "Dexter Gordon"
    INDEX 00 46:23:08
    INDEX 01 46:26:70
  TRACK 15 AUDIO
    TITLE "Lullaby In Rhythm"
    PERFORMER "Dexter Gordon"
    INDEX 00 49:35:10
    INDEX 01 49:37:40
  TRACK 16 AUDIO
    TITLE "Iridescene"
    PERFORMER "Dexter Gordon"
    INDEX 00 52:33:31
    INDEX 01 52:36:62
  TRACK 17 AUDIO
    TITLE "Mischievous Lady"
    PERFORMER "Dexter Gordon"
    INDEX 00 55:28:20
    INDEX 01 55:31:05
  TRACK 18 AUDIO
    TITLE "Blues Bikini"
    PERFORMER "Dexter Gordon"
    INDEX 00 58:10:10
    INDEX 01 58:13:40
  TRACK 19 AUDIO
    TITLE "It's The Talk Of The Town"
    PERFORMER "Dexter Gordon"
    INDEX 00 61:48:49
    INDEX 01 61:50:67
  TRACK 20 AUDIO
    TITLE "The Duel"
    PERFORMER "Dexter Gordon"
    INDEX 00 65:15:16
    INDEX 01 65:18:26
 
 
Об исполнителе (группе)
DEXTER'S MINOR MAD
BLOW, Mr. DEXTER
DEXTER'S DECK
DEXTER'S CUTTIN' OUT
New York, October 30, 1945
Dexter Gordon's All Stars
Dexter Gordon(ts) Argonne Thornton (Sadik Hakim)(p) Gene Ramey(b) Ed Nicholson(d)
I CANT ESCAPE FROMYOU
DEXTER RIDES AGAIN
LONG TALL DEXTER
DEXTER DIGS IN
New York, January 29, 1946
Dexter Gordon Quintet
Leonard Hawkins(tp) Dexter Gordon(ts) Bud Powell(p) Curley Russell(b) Max Roach(d)
MISCHIEVOUS LADY
LULLABY IN RHYTHM
Hollywood, June 5, 1947
Melba Liston(tb) Dexter Gordon(ts) Charles Fox(p) Red Callender(b) Chuck Thompson(d)
THE CHASE
Hollywood, June 12, 1947
Dexter Gordon, Wardell Gray(ts) Jimmy Bunn(p) Red Callender(b) Chuck Thornpson(d)
IRIDESCENE
BLUES BIKINI
IT'S THE TALK OF THE TOWN
Hollywood, June 12, 1947
Wardell Gray out. Rest Same.
GHOST OF A CHANCE
SWEET AND LOVELY
New York, December 4, 1947
Dexter Gordon(ts) Jimmy Rowles(p) Red Callender(b) Roy Porter(d)
THE DUEL
New York, December 4, 1947
Teddy Edwards(ts) added, rest same.
DEXTER'S RIFF
SETTIN' THE PACE
SO EASY
New York, December ", 1947
Dexter Gordon Quintet
По всем вопросам пишите личное сообщение пользователю M0p94ok.
18:19
321
Нет комментариев. Ваш будет первым!