Поиск

(Classic Jazz) [LP] [24/192 stereo] Coleman Hawkins & Red Allen - Volume Two: 'High Standards' (1958) - 1987, FLAC (LP sides)

(Classic Jazz) [LP] [24/192 stereo] Coleman Hawkins & Red Allen - Volume Two: 'High Standards' (1958) - 1987, FLAC (LP sides)
Треклист:
Coleman Hawkins & Red Allen - Volume Two: 'High Standards' (1958)
Жанр: Classic Jazz
Носитель: LP
Год выпуска: 1987
Лейбл: Jass
Страна-производитель: США
Аудио кодек: FLAC
Тип рипа: LP sides
Формат записи: 32/192 stereo
Формат раздачи: 24/192 stereo
Продолжительность: 00:28:40
Треклист:
SIDE 1 [14:12]
All Of Me
Tea For Two
Mean To Me
Sleepy Time Gal
SIDE 2 [14:28]
Stormy Weather
Summertime
The Lonesome Road
Источник оцифровки: автором раздачи
Код класса состояния винила: G
Устройство воспроизведения: JVC L-F120
Головка звукоснимателя: Audio Technica HR101E/U
Предварительный усилитель: Technics SA-DX930
АЦП: Realtek High Definition Audio 6.0.1.7443
Программа-оцифровщик: Audacity 2.1.2
Обработка: No filters, effects, or click removal
 
Спектр
 
АЧХ
 
Уровень записи
 
CUE
REM GENRE Jazz
REM DATE 1958
REM LABEL Jass
PERFORMER "Coleman Hawkins & Red Allen"
TITLE "Volume Two: 'High Standards'"
FILE "Side 1.flac" WAVE
TRACK 01 AUDIO
TITLE "All Of Me"
PERFORMER "Coleman Hawkins & Red Allen"
INDEX 01 00:00:00
TRACK 02 AUDIO
TITLE "Tea For Two"
PERFORMER "Coleman Hawkins & Red Allen"
INDEX 01 03:15:46
TRACK 03 AUDIO
TITLE "Mean To Me"
PERFORMER "Coleman Hawkins & Red Allen"
INDEX 01 05:54:37
TRACK 04 AUDIO
TITLE "Sleepy Time Gal"
PERFORMER "Coleman Hawkins & Red Allen"
INDEX 01 09:39:44
FILE "Side 2.flac" WAVE
TRACK 05 AUDIO
TITLE "Stormy Weather"
PERFORMER "Coleman Hawkins & Red Allen"
INDEX 01 00:00:00
TRACK 06 AUDIO
TITLE "Summertime"
PERFORMER "Coleman Hawkins & Red Allen"
INDEX 01 03:31:49
TRACK 07 AUDIO
TITLE "The Lonesome Road"
PERFORMER "Coleman Hawkins & Red Allen"
INDEX 01 08:31:29
 
personnel
Personnel:
Coleman Hawkins - tenor sax
Henry "Red" Allen - trumpet
Earl Warren - clarinet
Marty Napolean - piano
Chubby Jackson - bass
George Wettling - drums
Larry Clinton - arranger
Recorded in stereo August 7, 1958
По всем вопросам пишите личное сообщение пользователю M0p94ok.
05:26
320
Нет комментариев. Ваш будет первым!