Поиск

(Classic Jazz) Guy Lafitte - Corps Et Ame (1978) - 2002, FLAC (image+.cue), lossless

(Classic Jazz) Guy Lafitte - Corps Et Ame (1978) - 2002, FLAC (image+.cue), lossless
Треклист:
Guy Lafitte - Corps Et Ame (1978)

Жанр: Classic Jazz
Год выпуска диска: 2002
Производитель диска: SNG
Аудио кодек: FLAC
Тип рипа: image+.cue
Битрейт аудио: lossless
Продолжительность: 46:46
Трэклист:
01.One For The Bean
02.Body And Soul
03.It's The Talk Of The Town
04.Stuffy*
05.Bonsoir Jolie Madame
06.The Way You Look Tonight
07.Michel
08.Smuggler's Cave*
Доп. информация:
Personnel:
Guy Lafitte - tenor saxophone
Hank Jones - piano
Georege Duvivier - bass
J.C. Heard - drums
 
скрытый текст
Exact Audio Copy V0.99 prebeta 4 from 23. January 2008
EAC extraction logfile from 15. March 2002, 12:51
Guy Lafitte / Corps et Ame
Used drive : ASUS DRW-1814BL Adapter: 0 ID: 0
Read mode : Secure
Utilize accurate stream : Yes
Defeat audio cache : Yes
Make use of C2 pointers : No
Read offset correction : 6
Overread into Lead-In and Lead-Out : No
Fill up missing offset samples with silence : Yes
Delete leading and trailing silent blocks : No
Null samples used in CRC calculations : Yes
Used interface : Native Win32 interface for Win NT & 2000
Used output format : Internal WAV Routines
Sample format : 44.100 Hz; 16 Bit; Stereo
TOC of the extracted CD
Track | Start | Length | Start sector | End sector
---------------------------------------------------------
1 | 0:00.00 | 5:53.27 | 0 | 26501
2 | 5:53.27 | 6:07.73 | 26502 | 54099
3 | 12:01.25 | 4:36.10 | 54100 | 74809
4 | 16:37.35 | 4:18.02 | 74810 | 94161
5 | 20:55.37 | 5:01.68 | 94162 | 116804
6 | 25:57.30 | 7:41.35 | 116805 | 151414
7 | 33:38.65 | 8:16.35 | 151415 | 188649
8 | 41:55.25 | 4:51.12 | 188650 | 210486
Range status and errors
Selected range
Filename C:\Users\kursebeli\Desktop\Guy Lafitte - Corps et Ame\Guy Lafitte - Corps et Ame.wav
Peak level 99.8 %
Range quality 100.0 %
Copy CRC DE1E3093
Copy OK
No errors occurred
End of status report
По всем вопросам пишите личное сообщение пользователю M0p94ok.
10:05
371
Нет комментариев. Ваш будет первым!