Поиск

(Chamber Jazz, Crossover Jazz) Quadro Nuevo - Cine Passion - 2000, APE (image+.cue) lossless

Треклист:
Quadro NuevoCinePassionЖанр: Chamber Jazz, Crossover Jazz
Страна-производитель диска: Germany, Fine Music
Год издания диска: 2002
Издатель (лейбл): GLM Musikverlag
Номер по каталогу: LC 11188
Аудио кодек: APE (*.ape)
Тип рипа: image+.cue
Битрейт аудио: lossless
Продолжительность: 59:49
Источник (релизер): net, релизер - bioshock
Наличие сканов в содержимом раздачи: да
Треклист:
01. Gelsomina (from 'La Strada') [05:14]
02. Volver (from 'El Dia Que Me Quieras') [04:02]
03. Calling You (from 'Out Of Rosenheim') [04:11]
04. Plus Fort Que Nous (from 'Un Homme Et Une Femme') [04:23]
05. Der Wind Hat Mir Ein Lied Erzahlt (from 'La Habanera') [03:39]
06. Georgia (from 'The Gold Rush') [01:48]
07. Main Theme (from 'Lawrence Of Arabia') [03:34]
08. Main Theme (from 'Zwei in Einer Grossen Stadt') [03:50]
09. Oblivion (from 'Enrico IV') [05:11]
10. Themes (from 'The Hit') [03:34]
11. Sentimental Walk (from 'Diva') [01:44]
12. Main Theme (from 'Jean de Florette') [02:59]
13. Love Theme (from 'Spartacus') [05:10]
14. Chi Mai (from 'Le Professionnel') [03:56]
15. Running To The Church (from 'The Sixth Sense') [01:55]
16. Senza Fine (from 'Avanti Avanti') [04:31]
 
Лог создания рипа
Exact Audio Copy V0.99 prebeta 5 from 4. May 2009
EAC extraction logfile from 3. April 2010, 18:27
Quadro Nuevo / CinePassion
Used drive : PIONEER DVD-RW DVR-215D Adapter: 0 ID: 1
Read mode : Secure
Utilize accurate stream : Yes
Defeat audio cache : Yes
Make use of C2 pointers : No
Read offset correction : 48
Overread into Lead-In and Lead-Out : No
Fill up missing offset samples with silence : Yes
Delete leading and trailing silent blocks : No
Null samples used in CRC calculations : Yes
Used interface : Installed external ASPI interface
Used output format : Internal WAV Routines
Sample format : 44.100 Hz; 16 Bit; Stereo
TOC of the extracted CD
Track | Start | Length | Start sector | End sector
---------------------------------------------------------
1 | 0:00.00 | 5:14.10 | 0 | 23559
2 | 5:14.10 | 4:02.73 | 23560 | 41782
3 | 9:17.08 | 4:11.50 | 41783 | 60657
4 | 13:28.58 | 4:23.34 | 60658 | 80416
5 | 17:52.17 | 3:39.20 | 80417 | 96861
6 | 21:31.37 | 1:48.42 | 96862 | 105003
7 | 23:20.04 | 3:34.20 | 105004 | 121073
8 | 26:54.24 | 3:50.16 | 121074 | 138339
9 | 30:44.40 | 5:11.24 | 138340 | 161688
10 | 35:55.64 | 3:34.38 | 161689 | 177776
11 | 39:30.27 | 1:44.66 | 177777 | 185642
12 | 41:15.18 | 2:59.54 | 185643 | 199121
13 | 44:14.72 | 5:10.19 | 199122 | 222390
14 | 49:25.16 | 3:56.56 | 222391 | 240146
15 | 53:21.72 | 1:55.63 | 240147 | 248834
16 | 55:17.60 | 4:31.35 | 248835 | 269194
Range status and errors
Selected range
Filename C:\Program Files\Exact Audio Copy\FLAC\Quadro Nuevo - CinePassion.wav
Peak level 98.8 %
Range quality 99.9 %
Test CRC E092E477
Copy CRC E092E477
Copy OK
No errors occurred
AccurateRip summary
Track 1 not present in database
Track 2 not present in database
Track 3 not present in database
Track 4 not present in database
Track 5 not present in database
Track 6 not present in database
Track 7 not present in database
Track 8 not present in database
Track 9 not present in database
Track 10 not present in database
Track 11 not present in database
Track 12 not present in database
Track 13 not present in database
Track 14 not present in database
Track 15 not present in database
Track 16 not present in database
None of the tracks are present in the AccurateRip database
End of status report
 
Содержание индексной карты (.CUE)
REM DISCID DF0E0510
REM COMMENT "ExactAudioCopy v0.99pb5"
PERFORMER "Quadro Nuevo"
TITLE "CinePassion"
FILE "Quadro Nuevo - CinePassion.ape" WAVE
TRACK 01 AUDIO
TITLE "Gelsomina (from 'La Strada')"
PERFORMER "Quadro Nuevo"
INDEX 01 00:00:00
TRACK 02 AUDIO
TITLE "Volver (from 'El Dia Que Me Quieras')"
PERFORMER "Quadro Nuevo"
INDEX 01 05:14:10
TRACK 03 AUDIO
TITLE "Calling You (from 'Out Of Rosenheim')"
PERFORMER "Quadro Nuevo"
INDEX 01 09:17:08
TRACK 04 AUDIO
TITLE "Plus Fort Que Nous (from 'Un Homme Et Une Femme')"
PERFORMER "Quadro Nuevo"
INDEX 01 13:28:58
TRACK 05 AUDIO
TITLE "Der Wind Hat Mir Ein Lied Erzahlt (from 'La Habanera')"
PERFORMER "Quadro Nuevo"
INDEX 01 17:52:17
TRACK 06 AUDIO
TITLE "Georgia (from 'The Gold Rush')"
PERFORMER "Quadro Nuevo"
INDEX 01 21:31:37
TRACK 07 AUDIO
TITLE "Main Theme (from 'Lawrence Of Arabia')"
PERFORMER "Quadro Nuevo"
INDEX 01 23:20:04
TRACK 08 AUDIO
TITLE "Main Theme (from 'Zwei in Einer Grossen Stadt')"
PERFORMER "Quadro Nuevo"
INDEX 01 26:54:24
TRACK 09 AUDIO
TITLE "Oblivion (from 'Enrico IV')"
PERFORMER "Quadro Nuevo"
INDEX 01 30:44:40
TRACK 10 AUDIO
TITLE "Themes (from 'The Hit')"
PERFORMER "Quadro Nuevo"
INDEX 01 35:55:64
TRACK 11 AUDIO
TITLE "Sentimental Walk (from 'Diva')"
PERFORMER "Quadro Nuevo"
INDEX 01 39:30:27
TRACK 12 AUDIO
TITLE "Main Theme (from 'Jean de Florette')"
PERFORMER "Quadro Nuevo"
INDEX 01 41:15:18
TRACK 13 AUDIO
TITLE "Love Theme (from 'Spartacus')"
PERFORMER "Quadro Nuevo"
INDEX 01 44:14:72
TRACK 14 AUDIO
TITLE "Chi Mai (from 'Le Professionnel')"
PERFORMER "Quadro Nuevo"
INDEX 01 49:25:16
TRACK 15 AUDIO
TITLE "Running To The Church (from 'The Sixth Sense')"
PERFORMER "Quadro Nuevo"
INDEX 01 53:21:72
TRACK 16 AUDIO
TITLE "Senza Fine (from 'Avanti Avanti')"
PERFORMER "Quadro Nuevo"
INDEX 01 55:17:60
 
Лог проверки качества
-----------------------
DON'T MODIFY THIS FILE
-----------------------
PERFORMER: auCDtect Task Manager, ver. 1.0.3 B1 build 1.0.3.0
Copyright (c) 2008, 2009 y-soft. All rights reserved
http://y-soft.110mb.com
ANALYZER: auCDtect: CD records authenticity detector, version 0.8.2
Copyright (c) 2004 Oleg Berngardt. All rights reserved.
Copyright (c) 2004 Alexander Djourik. All rights reserved.
FILE: Quadro Nuevo - CinePassion.ape
Size: 322344080 Hash: 4CC732195C2EF65CB26C14205B17BD60 Accuracy: -m0
Conclusion: CDDA 100%
Signature: 3F9073279DDDFDAAEFF5F78AD0E523E2988B605D
 
Скриншот спектра частот


Доп. информация:
 
Об исполнителе (группе) - in english
Buenos Aires, Argentina has often been described as "the most European city in Latin America" (with Montevideo, Uruguay running a close second). So considering that tango originated in such a Europe-influenced city, it isn't surprising that it made its way across the Atlantic Ocean to Europe -- which has some fine tango groups. One of them is Quadro Nuevo, a Germany-based outfit that has been combining tango with a variety of European influences. Of course, tango had European influences to begin with, but with Quadro Nuevo, that passion for different types of European music is even more evident and even more overt. And there is certainly an abundance of European influences on Cinй Passion, a 2000 recording that finds the group putting its spin on songs from European and American movies. Tango is combined with everything from Italian music on "Un' Ora Sola Ti Vorrei" (from the Billy Wilder movie Avanti) to French chanson on "Plus Fort Que Nous" (from the 1966 French film Un Homme et une Femme, aka A Man and a Woman) to Spanish flamenco on Paco de Lucнa melodies that were used in the 1984 thriller The Hit. Quadro Nuevo acknowledge tango's pre-Astor Piazzolla era with their thoughtful arrangement of singer Carlos Gardel's theme from the 1935 movie El Dнa Que Me Quieras -- a theme that was revived 71 years later in 2006, when Penelope Cruz performed the song in Spanish director Pedro Almodуvar's Volver. However, Quadro Nuevo don't use a vocalist, and they don't perform "El Dнa Que Me Quieras" in a 1930s-like fashion; their instrumental version has a strong Piazzolla influence (when Gardel died in 1935, Piazzolla was only 14 and had yet to become well known). Full of surprises, Cinй Passion is not only excellent, it is also one of Quadro Nuevo's most essential albums. ~ Alex Henderson
 
Состав
см.сканы
18:46
373
Нет комментариев. Ваш будет первым!