Поиск

(Chamber Jazz) Baptiste Trotignon - Solo - 2003, FLAC (image+.cue), lossless

Треклист:
Baptiste Trotignon - Solo
Жанр: Chamber Jazz
Год выпуска диска: 2003
Производитель диска: Naïve 226210
Аудио кодек: FLAC
Тип рипа: image+.cue
Битрейт аудио: lossless
Продолжительность: 52:56
Трэклист:
1. The Dream Is Gone (Trotignon) 3:44
2. Urgences (Trotignon) 2:53
3. Youpala (Trotignon) 5:26
4. Dust (Trotignon) 8:20
5. My Lane (Trotignon) 6:09
6. Seven (Trotignon) 4:10
7. Moods (Trotignon) 7:32
8. Weg (Trotignon) 6:38
9. Langsam (Trotignon) 4:07
10. Rasch (Trotignon) 2:59
11. The End (Trotignon) 0:53
Исполнитель: Baptiste Trotignon (piano)
Доп. информация: Батист Тротиньон (Baptiste Trotignon, род. 1974) - отличный современный французский джазовый пианист. Дебютный альбом, в качестве лидирующего исполнителя, выпустил в 2000 году. Сотрудничал с Albert Mangelsdorff, George Brown, Olivier Ternime, Bertrand Renaudin, the Belmondo brothers,Sara Lazarus, the Naturel brothers, Steve Potts, Gildas Scouarnec, J-L Longnon, Eric Barret, Christian Salut, David Murray, Peter King, Manuel Rocheman и другими.
Всего им выпущено 9 альбомов, 6 из которых у нас теперь выложено:
2000 - Fluide
2001 - Sightseeing
2003 - Solo
2005 - Solo II
2005 - B. Trotignon / D. El-Malek (со-лидер)
2006 - Flower Power (со-лидер)
2007 - Full Time (Live) (со-лидер)
2008 - Live
2009 - Share
Особая благодарность m@rtin, который начал пропагандировать Тротиньона у нас на трекере!
Настоящий альбом записан 4 ноября 2003 года. Рип из сети.
 
Отчет ЕАС
EAC extraction logfile from 10. March 2007, 16:03 for CD
Baptiste Trotignon / Solo
Used drive : PHILIPS DVD-RAM SDVD8821 Adapter: 0 ID: 1
Read mode : Secure with NO C2, accurate stream, disable cache
Read offset correction : 6
Overread into Lead-In and Lead-Out : No
Used output format : Internal WAV Routines
44.100 Hz; 16 Bit; Stereo
Other options :
Fill up missing offset samples with silence : Yes
Delete leading and trailing silent blocks : No
Installed external ASPI interface
Range status and errors
Selected range
Filename C:\Documents and Settings\gilles Martin\Bureau\Baptiste Trotignon - Solo.wav
Peak level 90.5 %
Range quality 100.0 %
CRC 4DCF4410
Copy OK
No errors occured
End of status report
 
Отчет Аккуратипа
[Verification date: 11.06.2009 12:01:00]
[Disc ID: 00172c31-00cb5da8-a00c680b]
HDCD: peak extend: yes, transient filter: none, gain: none
Track [ CRC ] Status
01 [46c26326] (02/02) Accurately ripped as in pressing(s) #1
02 [651eb403] (02/02) Accurately ripped as in pressing(s) #1
03 [44007924] (02/02) Accurately ripped as in pressing(s) #1
04 [46ae4d03] (02/02) Accurately ripped as in pressing(s) #1
05 [45eca317] (02/02) Accurately ripped as in pressing(s) #1
06 [38a77453] (02/02) Accurately ripped as in pressing(s) #1
07 [9859aa21] (02/02) Accurately ripped as in pressing(s) #1
08 [1ace30f2] (02/02) Accurately ripped as in pressing(s) #1
09 [d841b6a8] (02/02) Accurately ripped as in pressing(s) #1
10 [2d2f317a] (02/02) Accurately ripped as in pressing(s) #1
11 [8a8b154b] (02/02) Accurately ripped as in pressing(s) #1
Track [ CRC32 ] [W/O NULL] [ LOG ]
-- [4DCF4410] [70EEABDB] CRC32
01 [D5BED21E] [42C40C70]
02 [6339291C] [A8DF39C1]
03 [5D87055B] [71912883]
04 [587F88A1] [92D5BB33]
05 [3B67F8DB] [558CF9AF]
06 [4447087D] [B006CA40]
07 [00C3A438] [2F2E8BC2]
08 [72FAD051] [61792702]
09 [37364EBB] [807A112D]
10 [949DB7E0] [DB545332]
11 [41D642F4] [4AC27D9B]
 
Отчет Тау
Приватный:
Нет (DHT включён)
Размер:
227.15 Мб (238,185,474 байт) » файлов: 10
Участники:
0 раздают, 0 качают (0 участников всего)
Внешние участники:
2 раздают, 1 качают (3 участников всего) [ Обновить ]
For power users only: no seeders - write personal message to M0p94ok. Для power user: нет сидеров - пишите в личку M0p94ok.
09:23
145
Нет комментариев. Ваш будет первым!