Поиск

(Chamber, ethnic, fusion, world music) [CD] Bamidbar - Bamidbar (В пустыне) - 2009 (Self Released), FLAC (tracks+.cue), lossless

(Chamber, ethnic, fusion, world music) [CD] Bamidbar - Bamidbar (В пустыне) - 2009 (Self Released), FLAC (tracks+.cue), lossless
Треклист:



Bamidbar - Bamidbar (В пустыне) - 2009 (Self Released)
MG: Музыка минималистичная и зачаровывающая, как сама пустыня. Любопытно, что следующий проект гитариста, лидера этого состава - Нира Попликера, тоже носит похожее название - Electric Desert
Жанр: Chamber, ethnic, fusion, world music
Носитель:CD
Страна-производитель диска (релиза): Israel
Год издания: 2009
Издатель (лейбл): Self Released
Номер по каталогу: No number
Страна исполнителя (группы): Israel
Аудио кодек: FLAC (*.flac)
Тип рипа: (tracks .cue)
Битрейт аудио: lossless
Наличие сканов в содержимом раздачи: full scans, png, 300 dpi
Продолжительность: 35:49
Источник (релизер): Моя коллекция, мой рип
Трэклист:
1. Ashiko
2. Balkan Balkan
3. You And I
4. Morning
5. Life With Me
6. Cna'an
7. Empty Man
8. Awakening
9. With God's Help
10. Storm
11. On The Shore Of The Stream
12. Land Not Sown
 
Лог создания рипа (10. March 2015)
Exact Audio Copy V1.0 beta 3 from 29. August 2011
EAC extraction logfile from 10. March 2015, 7:51
Bamidbar / Bamidbar
Used drive : HL-DT-STDVDRAM GH24NSB0 Adapter: 1 ID: 0
Read mode : Secure
Utilize accurate stream : Yes
Defeat audio cache : Yes
Make use of C2 pointers : No
Read offset correction : 6
Overread into Lead-In and Lead-Out : No
Fill up missing offset samples with silence : Yes
Delete leading and trailing silent blocks : No
Null samples used in CRC calculations : Yes
Used interface : Native Win32 interface for Win NT & 2000
Gap handling : Appended to previous track
Used output format : User Defined Encoder
Selected bitrate : 1024 kBit/s
Quality : High
Add ID3 tag : No
Command line compressor : C:\Program Files (x86)\Exact Audio Copy\Flac\flac.exe
Additional command line options : -V -8 -T "Comment=ripped by Musicgate special for СПАМ -T "Genre=%genre%" -T "Artist=%artist%" -T "Title=%title%" -T "Album=%albumtitle%" -T "Date=%year%" -T "Tracknumber=%tracknr%" %source% -o Юst%
TOC of the extracted CD
Track | Start | Length | Start sector | End sector
---------------------------------------------------------
1 | 0:00.00 | 2:40.37 | 0 | 12036
2 | 2:40.37 | 3:40.06 | 12037 | 28542
3 | 6:20.43 | 3:20.54 | 28543 | 43596
4 | 9:41.22 | 3:22.08 | 43597 | 58754
5 | 13:03.30 | 3:02.21 | 58755 | 72425
6 | 16:05.51 | 4:10.70 | 72426 | 91245
7 | 20:16.46 | 2:38.38 | 91246 | 103133
8 | 22:55.09 | 2:09.14 | 103134 | 112822
9 | 25:04.23 | 2:23.22 | 112823 | 123569
10 | 27:27.45 | 2:41.64 | 123570 | 135708
11 | 30:09.34 | 2:57.30 | 135709 | 149013
12 | 33:06.64 | 2:42.68 | 149014 | 161231
Track 1
Filename D:\Musicgate for СПАМ - Bamidbar - 2009 (Self Released)\01. Ashiko.wav
Pre-gap length 0:00:02.00
Peak level 100.0 %
Extraction speed 1.1 X
Track quality 100.0 %
Test CRC 8E72AD4B
Copy CRC 8E72AD4B
Track not present in AccurateRip database
Copy OK
Track 2
Filename D:\Musicgate for СПАМ - Bamidbar - 2009 (Self Released)\02. Balkan Balkan.wav
Pre-gap length 0:00:02.00
Peak level 100.0 %
Extraction speed 1.1 X
Track quality 99.9 %
Test CRC 2C011B02
Copy CRC 2C011B02
Track not present in AccurateRip database
Copy OK
Track 3
Filename D:\Musicgate for СПАМ - Bamidbar - 2009 (Self Released)\03. You And I.wav
Pre-gap length 0:00:02.00
Peak level 100.0 %
Extraction speed 1.3 X
Track quality 100.0 %
Test CRC 2860472C
Copy CRC 2860472C
Track not present in AccurateRip database
Copy OK
Track 4
Filename D:\Musicgate for СПАМ - Bamidbar - 2009 (Self Released)\04. Morning.wav
Pre-gap length 0:00:02.00
Peak level 100.0 %
Extraction speed 1.4 X
Track quality 100.0 %
Test CRC 53041E70
Copy CRC 53041E70
Track not present in AccurateRip database
Copy OK
Track 5
Filename D:\Musicgate for СПАМ - Bamidbar - 2009 (Self Released)\05. Life With Me.wav
Pre-gap length 0:00:02.00
Peak level 100.0 %
Extraction speed 1.2 X
Track quality 99.9 %
Test CRC 98885494
Copy CRC 98885494
Track not present in AccurateRip database
Copy OK
Track 6
Filename D:\Musicgate for СПАМ - Bamidbar - 2009 (Self Released)\06. Cna'an.wav
Pre-gap length 0:00:02.00
Peak level 100.0 %
Extraction speed 1.6 X
Track quality 100.0 %
Test CRC 14C17486
Copy CRC 14C17486
Track not present in AccurateRip database
Copy OK
Track 7
Filename D:\Musicgate for СПАМ - Bamidbar - 2009 (Self Released)\07. Empty Man.wav
Pre-gap length 0:00:02.00
Peak level 100.0 %
Extraction speed 1.5 X
Track quality 100.0 %
Test CRC 9D27CC59
Copy CRC 9D27CC59
Track not present in AccurateRip database
Copy OK
Track 8
Filename D:\Musicgate for СПАМ - Bamidbar - 2009 (Self Released)\08. Awakening.wav
Pre-gap length 0:00:02.00
Peak level 100.0 %
Extraction speed 1.5 X
Track quality 100.0 %
Test CRC 4F45CB6C
Copy CRC 4F45CB6C
Track not present in AccurateRip database
Copy OK
Track 9
Filename D:\Musicgate for СПАМ - Bamidbar - 2009 (Self Released)\09. With God's Help.wav
Pre-gap length 0:00:02.00
Peak level 100.0 %
Extraction speed 1.6 X
Track quality 100.0 %
Test CRC 4E818633
Copy CRC 4E818633
Track not present in AccurateRip database
Copy OK
Track 10
Filename D:\Musicgate for СПАМ - Bamidbar - 2009 (Self Released)\10. Storm.wav
Pre-gap length 0:00:02.00
Peak level 100.0 %
Extraction speed 1.7 X
Track quality 100.0 %
Test CRC 8582C710
Copy CRC 8582C710
Track not present in AccurateRip database
Copy OK
Track 11
Filename D:\Musicgate for СПАМ - Bamidbar - 2009 (Self Released)\11. On The Shore Of The Stream.wav
Pre-gap length 0:00:02.00
Peak level 100.0 %
Extraction speed 1.8 X
Track quality 100.0 %
Test CRC 7F5EB28C
Copy CRC 7F5EB28C
Track not present in AccurateRip database
Copy OK
Track 12
Filename D:\Musicgate for СПАМ - Bamidbar - 2009 (Self Released)\12. Land Not Sown.wav
Pre-gap length 0:00:02.00
Peak level 62.3 %
Extraction speed 1.8 X
Track quality 100.0 %
Test CRC 94BE9F4F
Copy CRC 94BE9F4F
Track not present in AccurateRip database
Copy OK
None of the tracks are present in the AccurateRip database
No errors occurred
End of status report
==== Log checksum 3C4BEA6738662EE5B6E67B27A7D092A206FF07B24FAD1F3B122626191F57E9FD ====
 
Содержание индексной карты (.CUE):
REM GENRE "ethnic fusion"
REM DATE 2009
REM DISCID B508650C
REM COMMENT "ExactAudioCopy v1.0b3"
PERFORMER "Bamidbar"
TITLE "Bamidbar"
FILE "01. Ashiko.wav" WAVE
TRACK 01 AUDIO
TITLE "Ashiko"
PERFORMER "Bamidbar"
INDEX 01 00:00:00
TRACK 02 AUDIO
TITLE "Balkan Balkan"
PERFORMER "Bamidbar"
INDEX 00 02:38:37
FILE "02. Balkan Balkan.wav" WAVE
INDEX 01 00:00:00
TRACK 03 AUDIO
TITLE "You And I"
PERFORMER "Bamidbar"
INDEX 00 03:38:06
FILE "03. You And I.wav" WAVE
INDEX 01 00:00:00
TRACK 04 AUDIO
TITLE "Morning"
PERFORMER "Bamidbar"
INDEX 00 03:18:54
FILE "04. Morning.wav" WAVE
INDEX 01 00:00:00
TRACK 05 AUDIO
TITLE "Life With Me"
PERFORMER "Bamidbar"
INDEX 00 03:20:08
FILE "05. Life With Me.wav" WAVE
INDEX 01 00:00:00
TRACK 06 AUDIO
TITLE "Cna'an"
PERFORMER "Bamidbar"
INDEX 00 03:00:21
FILE "06. Cna'an.wav" WAVE
INDEX 01 00:00:00
TRACK 07 AUDIO
TITLE "Empty Man"
PERFORMER "Bamidbar"
INDEX 00 04:08:70
FILE "07. Empty Man.wav" WAVE
INDEX 01 00:00:00
TRACK 08 AUDIO
TITLE "Awakening"
PERFORMER "Bamidbar"
INDEX 00 02:36:38
FILE "08. Awakening.wav" WAVE
INDEX 01 00:00:00
TRACK 09 AUDIO
TITLE "With God's Help"
PERFORMER "Bamidbar"
INDEX 00 02:07:14
FILE "09. With God's Help.wav" WAVE
INDEX 01 00:00:00
TRACK 10 AUDIO
TITLE "Storm"
PERFORMER "Bamidbar"
INDEX 00 02:21:22
FILE "10. Storm.wav" WAVE
INDEX 01 00:00:00
TRACK 11 AUDIO
TITLE "On The Shore Of The Stream"
PERFORMER "Bamidbar"
INDEX 00 02:39:64
FILE "11. On The Shore Of The Stream.wav" WAVE
INDEX 01 00:00:00
TRACK 12 AUDIO
TITLE "Land Not Sown"
PERFORMER "Bamidbar"
INDEX 00 02:55:30
FILE "12. Land Not Sown.wav" WAVE
INDEX 01 00:00:00
 
Лог проверки качества
 
Матрица
 
Состав
22:37
317
Нет комментариев. Ваш будет первым!