Вы используете незарегистрированную версию компонента "Вкладки"!

Поиск

(Cabaret) Pascal Comelade - Metode de Rocanrol - 2008, FLAC (tracks+.cue), lossless

(Cabaret) Pascal Comelade - Metode de Rocanrol - 2008, FLAC (tracks+.cue), lossless
Треклист:
Pascal Comelade - Metode de Rocanrol
Жанр: Cabaret
Год выпуска диска: 2008
Производитель диска: Discmedi, DM 4475-02 - DL: B 902-2008
Аудио кодек: FLAC
Тип рипа: tracks+.cue
Битрейт аудио: lossless
Продолжительность: 46:13
Трэклист:
01 - Passejant per Barcelona (Pi de la Serra)adigm
02 - Stranger in Paradigm
03 - L'u.
04 - Elvis loved dogs
05 - Zappambarretina.
06 - La vedette d'el Molino.
07 - Cançó sense títol (Pau Riba,Comelade)
08 - L'enterrament de les sardines
09 - Jopo de pojo not dead
10 - Mossèn Xemeneia a l'Heliogàbal
11 - The indian of the group
12 - Cançó de Bressol (Serrat)
13 - 1974
14 - Il Luna-Park galáctico
15 - Catalana de jazz
16 - Smog on the vermut
17 - Noia de porcellana (Pau Riba)
18 - Cadillac (Vince Taylor)
Доп. информация:
 
скрытый текст
An inspiration both popular and academic. His musical world seems made of odds and ends, reminiscent of country dances in the small hours, while the last pompoms fade away, or a smoky cabaret club where the artists sing their numbers on a wobbly stage. Comelade’s compositions have a rare evocative power, they depict sibylline atmospheres that leave the listener’s imagination free to roam with the melodies. "My music is very like painting. I don’t like giving signposts, it is up to each person to hear in it what they want to hear." he says, smiling.
He talks about his latest album not without a hint of pride, "I’ve been writing music for twenty years, but this one is the best. The others were too hygienic, too clean, too smooth. Too long as well. So I’ve gone back to my first vinyl loves and I’ve conceived it as a good old-fashioned LP, with an A side and a B side ... except that I’ve wiped off the best piece at the beginning of side A!"
Comelade talks in snatches, stops in the middle of sentences, begins again as though he wanted to go back and wipe out what he has just said in an impossible flashback. Raised on rock’n’roll ("until the 1970s" he adds), tango, paso, ballroom and jazz, he offers us music that is the fruit of this hybrid upbringing, the music of the teenage rebel, necessarily rebellious as he was, and of his parents’ record collection, whose treasures he discovered late in life. Psicòtic Music’Hall is a moment of romance suspended in time, a timeless journey off the well-beaten tracks of the too often sanitised music coming out of our transistors.
All instrumental songs except 07 (Cançó sense títol) with the poem from Pau Riba in Catalan language.
 
EAC LOG
V0.99 prebeta 4 from 23. January 2008
Archivo Log de extracciones desde 26. Marzo 2008, 12:25
Pascal Comelade / Mиtode de Rocanrol
Usar unidad : PIONEER DVD-RW DVR-109 Adapter: 0 ID: 0
Modo de Lectura : :
: Sн
: Sн
: No
Correcciуn de Desplazamiento de Lectura : : 48
Sobreleer tanto en Lead-In como en Lead-Out : No
Rellenar las muestras faltantes con silencios : Sн
Eliminar silencios inicial y final : No
: Sн
: Interfaz ASPI externo instalado
:
Formato de Salida utilizado : : Compresor definido por el Usuario
: 128 kBit/s
: Alta
: No
: C:\Archivos de programa\FLAC\flac.exe
Opciones adicionales en lнnea de comandos : : -V -8 -T "artist=%a" -T "title=%t" -T "album=%g" -T "date=%y" -T "tracknumber=%n" -T "genre=%m" %s
| | | |
--------------------------------------------
1 | 0:00.00 | 2:20.45 | 0 | 10544
2 | 2:20.45 | 2:25.74 | 10545 | 21493
3 | 4:46.44 | 3:42.36 | 21494 | 38179
4 | 8:29.05 | 2:58.74 | 38180 | 51603
5 | 11:28.04 | 2:03.60 | 51604 | 60888
6 | 13:31.64 | 2:27.41 | 60889 | 71954
7 | 15:59.30 | 2:21.04 | 71955 | 82533
8 | 18:20.34 | 2:44.30 | 82534 | 94863
9 | 21:04.64 | 2:49.14 | 94864 | 107552
10 | 23:54.03 | 1:50.36 | 107553 | 115838
11 | 25:44.39 | 2:51.44 | 115839 | 128707
12 | 28:36.08 | 2:34.28 | 128708 | 140285
13 | 31:10.36 | 1:09.46 | 140286 | 145506
14 | 32:20.07 | 3:13.07 | 145507 | 159988
15 | 35:33.14 | 2:58.02 | 159989 | 173340
16 | 38:31.16 | 2:36.49 | 173341 | 185089
17 | 41:07.65 | 3:31.61 | 185090 | 200975
18 | 44:39.51 | 2:33.45 | 200976 | 212495
Pista 1
Nombre de Archivo D:\Mis documentos\000 audio-rips\01 - Passejant per Barcelona (Pi de la Serra).wav
Longitud Pre-gap 0:00:02.00
Nivel Pico 100.0 %
Calidad de Pista 100.0 %
Test CRC 9A8E0ED3
Copiar CRC 9A8E0ED3
Copia OK
Pista 2
Nombre de Archivo D:\Mis documentos\000 audio-rips\02 - Stranger in Paradigm.wav
Nivel Pico 100.0 %
Calidad de Pista 100.0 %
Test CRC 1D8E0BD2
Copiar CRC 1D8E0BD2
Copia OK
Pista 3
Nombre de Archivo D:\Mis documentos\000 audio-rips\03 - L'u.wav
Nivel Pico 100.0 %
Calidad de Pista 99.9 %
Test CRC D0304029
Copiar CRC D0304029
Copia OK
Pista 4
Nombre de Archivo D:\Mis documentos\000 audio-rips\04 - Elvis loved dogs.wav
Nivel Pico 100.0 %
Calidad de Pista 99.9 %
Test CRC 52B0385E
Copiar CRC 52B0385E
Copia OK
Pista 5
Nombre de Archivo D:\Mis documentos\000 audio-rips\05 - Zappambarretina.wav
Nivel Pico 100.0 %
Calidad de Pista 100.0 %
Test CRC E38BE8F1
Copiar CRC E38BE8F1
Copia OK
Pista 6
Nombre de Archivo D:\Mis documentos\000 audio-rips\06 - La vedette d'el Molino.wav
Nivel Pico 99.9 %
Calidad de Pista 100.0 %
Test CRC DF7B66E9
Copiar CRC DF7B66E9
Copia OK
Pista 7
Nombre de Archivo D:\Mis documentos\000 audio-rips\07 - Canзу sense tнtol (Pau Riba,Comelade).wav
Nivel Pico 100.0 %
Calidad de Pista 100.0 %
Test CRC 19900775
Copiar CRC 19900775
Copia OK
Pista 8
Nombre de Archivo D:\Mis documentos\000 audio-rips\08 - L'enterrament de les sardines.wav
Longitud Pre-gap 0:00:01.00
Nivel Pico 100.0 %
Calidad de Pista 100.0 %
Test CRC 7129568F
Copiar CRC 7129568F
Copia OK
Pista 9
Nombre de Archivo D:\Mis documentos\000 audio-rips\09 - Jopo de pojo not dead.wav
Longitud Pre-gap 0:00:02.00
Nivel Pico 97.7 %
Calidad de Pista 100.0 %
Test CRC 587CE958
Copiar CRC 587CE958
Copia OK
Pista 10
Nombre de Archivo D:\Mis documentos\000 audio-rips\10 - Mossиn Xemeneia a l'Heliogаbal.wav
Nivel Pico 98.5 %
Calidad de Pista 100.0 %
Test CRC 69742191
Copiar CRC 69742191
Copia OK
Pista 11
Nombre de Archivo D:\Mis documentos\000 audio-rips\11 - The indian of the group.wav
Nivel Pico 97.6 %
Calidad de Pista 100.0 %
Test CRC 3A170662
Copiar CRC 3A170662
Copia OK
Pista 12
Nombre de Archivo D:\Mis documentos\000 audio-rips\12 - Canзу de Bressol (Serrat).wav
Nivel Pico 99.8 %
Calidad de Pista 99.9 %
Test CRC 83A375C4
Copiar CRC 83A375C4
Copia OK
Pista 13
Nombre de Archivo D:\Mis documentos\000 audio-rips\13 - 1974.wav
Nivel Pico 100.0 %
Calidad de Pista 100.0 %
Test CRC 6029572E
Copiar CRC 6029572E
Copia OK
Pista 14
Nombre de Archivo D:\Mis documentos\000 audio-rips\14 - Il Luna-Park galбctico.wav
Nivel Pico 100.0 %
Calidad de Pista 100.0 %
Test CRC 41DF37B5
Copiar CRC 41DF37B5
Copia OK
Pista 15
Nombre de Archivo D:\Mis documentos\000 audio-rips\15 - Catalana de jazz.wav
Nivel Pico 96.7 %
Calidad de Pista 100.0 %
Test CRC 65F3324A
Copiar CRC 65F3324A
Copia OK
Pista 16
Nombre de Archivo D:\Mis documentos\000 audio-rips\16 - Smog on the vermut.wav
Nivel Pico 96.0 %
Calidad de Pista 100.0 %
Test CRC E9BE1C5F
Copiar CRC E9BE1C5F
Copia OK
Pista 17
Nombre de Archivo D:\Mis documentos\000 audio-rips\17 - Noia de porcellana (Pau Riba).wav
Nivel Pico 100.0 %
Calidad de Pista 100.0 %
Test CRC A7DEF8C3
Copiar CRC A7DEF8C3
Copia OK
Pista 18
Nombre de Archivo D:\Mis documentos\000 audio-rips\18 - Cadillac (Vince Taylor).wav
Nivel Pico 100.0 %
Calidad de Pista 100.0 %
Test CRC CE4AA615
Copiar CRC CE4AA615
Copia OK
Sin Errores
Final del Informe
По всем вопросам пишите личное сообщение пользователю M0p94ok.
15:18
274
Нет комментариев. Ваш будет первым!