Поиск

(Broken Beat, Nu Jazz, Latin, Funk) [CD] PALO! - This Is Afro-Cuban Funk - 2009, FLAC (tracks), lossless

(Broken Beat, Nu Jazz, Latin, Funk) [CD] PALO! - This Is Afro-Cuban Funk - 2009, FLAC (tracks), lossless
Треклист:
PALO! / This Is Afro-Cuban Funk
Жанр: Broken Beat, Nu Jazz, Latin, Funk
Носитель: CD
Страна-производитель диска (релиза): USA
Год издания: 2009
Издатель (лейбл): Rolling Pin Music
Номер по каталогу: 5741
Страна исполнителя (группы): USA
Аудиокодек: FLAC (*.flac)
Тип рипа: tracks
Битрейт аудио: lossless
Продолжительность: 48:29
Источник (релизер): valechek82
Наличие сканов в содержимом раздачи: нет
Треклист:
01. Lengua Larga 05:00
02. La Habana Buena 04:03
03. Tabaco y Ron Pa' Mi Santa 04:37
04. Quimbombó 04:17
05. Pa' Changó (feat. Los Herederos) 05:14
06. Ven Pa' La Loma 05:02
07. Camina Con Los Codos 04:33
08. Oro 05:20
09. Crescencio 05:19
10. Mi Protección 05:05
 
Лог создания рипа
Exact Audio Copy V1.0 beta 3 from 29. August 2011
Отчёт EAC об извлечении, выполненном 2. марта 2015, 15:37
PALO / This Is Afro Cuban Funk
Дисковод: HL-DT-STDVDRAM GH24NSB0 Adapter: 0 ID: 0
Режим чтения : Достоверность
Использование точного потока : Да
Отключение кэша аудио : Да
Использование указателей C2 : Нет
Коррекция смещения при чтении : 6
Способность читать области Lead-in и Lead-out : Нет
Заполнение пропущенных сэмплов тишиной : Да
Удаление блоков с тишиной в начале и конце : Нет
При вычислениях CRC использовались нулевые сэмплы : Да
Интерфейс : Встроенный Win32-интерфейс для Win NT/2000
Обработка зазоров : Не обнаружено, добавлено к предыдущему треку
Выходной формат : Внутренние WAV-операции
Формат сэмплов : 44.100 Гц; 16 бит; стерео
TOC извлечённого CD
Трек | Старт | Длительность | Начальный сектор | Конечный сектор
---------------------------------------------------------------------
1 | 0:00.00 | 4:59.61 | 0 | 22485
2 | 4:59.61 | 4:02.67 | 22486 | 40702
3 | 9:02.53 | 4:37.24 | 40703 | 61501
4 | 13:40.02 | 4:17.35 | 61502 | 80811
5 | 17:57.37 | 5:13.38 | 80812 | 104324
6 | 23:11.00 | 5:01.71 | 104325 | 126970
7 | 28:12.71 | 4:33.29 | 126971 | 147474
8 | 32:46.25 | 5:20.25 | 147475 | 171499
9 | 38:06.50 | 5:19.33 | 171500 | 195457
10 | 43:26.08 | 5:05.19 | 195458 | 218351
Трек 1
Имя файла C:\Users\Александр\Desktop\PALO - This Is Afro Cuban Funk (2010)\01 Lengua Larga.wav
Пиковый уровень 98.7 %
Скорость извлечения 1.1 X
Качество трека 100.0 %
CRC теста 8F0F5298
CRC копии 8F0F5298
Точное извлечение (достоверность 1) [F6AB239F] (AR v2)
Копирование... OK
Трек 2
Имя файла C:\Users\Александр\Desktop\PALO - This Is Afro Cuban Funk (2010)\02 La Habana Buena.wav
Пиковый уровень 98.7 %
Скорость извлечения 1.2 X
Качество трека 100.0 %
CRC теста 71661A89
CRC копии 71661A89
Точное извлечение (достоверность 1) [547F3C26] (AR v2)
Копирование... OK
Трек 3
Имя файла C:\Users\Александр\Desktop\PALO - This Is Afro Cuban Funk (2010)\03 Tabaco Y Ron Pa' Mi Santa.wav
Пиковый уровень 98.7 %
Скорость извлечения 1.4 X
Качество трека 100.0 %
CRC теста 98038C5D
CRC копии 98038C5D
Точное извлечение (достоверность 1) [2C7E95E0] (AR v2)
Копирование... OK
Трек 4
Имя файла C:\Users\Александр\Desktop\PALO - This Is Afro Cuban Funk (2010)\04 Quimbombo.wav
Пиковый уровень 98.7 %
Скорость извлечения 1.5 X
Качество трека 100.0 %
CRC теста EF0241C8
CRC копии EF0241C8
Точное извлечение (достоверность 1) [1431E6F4] (AR v2)
Копирование... OK
Трек 5
Имя файла C:\Users\Александр\Desktop\PALO - This Is Afro Cuban Funk (2010)\05 Pa Chango (feat Los Herederos).wav
Пиковый уровень 98.7 %
Скорость извлечения 1.6 X
Качество трека 100.0 %
CRC теста E9059038
CRC копии E9059038
Точное извлечение (достоверность 1) [565AC658] (AR v2)
Копирование... OK
Трек 6
Имя файла C:\Users\Александр\Desktop\PALO - This Is Afro Cuban Funk (2010)\06 Ven Pa' La Loma.wav
Пиковый уровень 98.7 %
Скорость извлечения 1.7 X
Качество трека 100.0 %
CRC теста 4DFB8698
CRC копии 4DFB8698
Точное извлечение (достоверность 1) [BF24640E] (AR v2)
Копирование... OK
Трек 7
Имя файла C:\Users\Александр\Desktop\PALO - This Is Afro Cuban Funk (2010)\07 Camina Con Los Codos.wav
Пиковый уровень 98.7 %
Скорость извлечения 1.8 X
Качество трека 100.0 %
CRC теста 035943DE
CRC копии 035943DE
Точное извлечение (достоверность 1) [BBFAD127] (AR v2)
Копирование... OK
Трек 8
Имя файла C:\Users\Александр\Desktop\PALO - This Is Afro Cuban Funk (2010)\08 Oro.wav
Пиковый уровень 98.7 %
Скорость извлечения 1.7 X
Качество трека 99.9 %
CRC теста FC0F9E27
CRC копии FC0F9E27
Точное извлечение (достоверность 1) [786F1B44] (AR v2)
Копирование... OK
Трек 9
Имя файла C:\Users\Александр\Desktop\PALO - This Is Afro Cuban Funk (2010)\09 Crescencio.wav
Пиковый уровень 98.7 %
Скорость извлечения 2.0 X
Качество трека 100.0 %
CRC теста C7FCE71E
CRC копии C7FCE71E
Точное извлечение (достоверность 1) [FF37F866] (AR v2)
Копирование... OK
Трек 10
Имя файла C:\Users\Александр\Desktop\PALO - This Is Afro Cuban Funk (2010)\10 Mi Proteccion.wav
Пиковый уровень 98.7 %
Скорость извлечения 2.1 X
Качество трека 100.0 %
CRC теста 6A9005E1
CRC копии 6A9005E1
Точное извлечение (достоверность 1) [329CCDAA] (AR v2)
Копирование... OK
Все треки извлечены точно
Ошибок не произошло
Конец отчёта
==== Контрольная сумма отчёта 1A4152B46620C038DA7389B42B4AE108EA965F7B3F7CF2E18F84F95A02682B77 ====
 
Лог проверки качества
AUDIOCHECKER v2.0 beta (build 457) - by Dester - opdester@freemail.hu
~~~~~~~~~~~~~~~~~~~~~~~~~~~~~~~~~~
-=== DO NOT EDIT THIS FILE! ===-
Path: ...\PALO! 2009 - This Is Afro-Cuban Funk (Broken Beat, Nu Jazz, Latin, Funk)
01 -=- 01 Lengua Larga.flac -=- CDDA (100%)
02 -=- 02 La Habana Buena.flac -=- CDDA (100%)
03 -=- 03 Tabaco Y Ron Pa' Mi Santa.flac -=- CDDA (100%)
04 -=- 04 Quimbombo.flac -=- CDDA (100%)
05 -=- 05 Pa Chango (feat Los Herederos).flac -=- CDDA (100%)
06 -=- 06 Ven Pa' La Loma.flac -=- CDDA (100%)
07 -=- 07 Camina Con Los Codos.flac -=- CDDA (100%)
08 -=- 08 Oro.flac -=- CDDA (100%)
09 -=- 09 Crescencio.flac -=- CDDA (100%)
10 -=- 10 Mi Proteccion.flac -=- CDDA (100%)
Summary 100,00% CDDA
20738436
 
Об исполнителе (группе)
Miami based PALO! has a lot to celebrate. With a 2014 Latin Grammy nomination for their album “PALO! Live,” an Emmy nominated documentary “Miami Boheme: An American Musical Journey”, in which PALO! has an integral role as one of the bands that represents Miami’s musical and cultural scene, and sold-out venues on their recent tour to Los Angeles, New York, Boston and Chicago, PALO! has become one of the most prominent bands out of Miami. PALO! is salsa with a taste of jazz, ignited by infectious funk rhythms, a distinct style of Cuban music proving to be irresistible for those that love to dance.
PALO! formed in 2003 in Miami, Florida as a concept to fuse Cuban music with Afro-American rhythms. The idea came from Steve Roitstein, keyboardist of the band, when he invited fellow musicians to join him in this musical experiment. The band is comprised of lead vocalist Leslie Cartaya, who was nominated for a Latin Grammy in 2013 for Best New Artist, Steve Roitstein, keyboardist and producer known for his work with Celia Cruz, Willy Chirino, Tito Puente, Cheo Feliciano, Oscar d'Leon, and Ricardo Montaner, among others, Dr. Ed Calle, a three-time Latin Grammy nominee and legendary saxophonist recognized for his ability to improvise, and the percussionists and vocalists of the group, Philbert Armenteros and Raymer Olalde, who bring the Cuban fire and energy that characterizes PALO!.
With a career spanning over a decade, the group continues to capture fans and gain followers, becoming one of the most innovative groups in the Latin music industry.
 
Об альбоме (сборнике)
Afro-Cuban Funk is Cuban music for the new generation. And the leader of the sound is the Miami based band PALO! -- New York Post
Furiously funky, definitely Cuban. -- LeMonde.fr Mundo Latino
 
Состав
Leslie Cartaya - lead vocals
Philbert Armenteros - lead vocals, percussion
Ed Calle - tenor saxophone
Raymer Olalde - vocals, percussion
Steve Roitstein - vocals, keyboards, loop
18:24
255
Нет комментариев. Ваш будет первым!