Поиск

(Brazillian Jazz, Guitar) Baden Powell - Live at the Rio Jazz Club - 1990, FLAC (image+.cue), lossless

Треклист:
Baden Powell - Live at the Rio Jazz Club
Жанр: Brazillian Jazz, Guitar
Год выпуска диска: 1990
Производитель диска: Sonet Records, GB
Аудио кодек: FLAC
Тип рипа: image+.cue
Битрейт аудио: lossless
Продолжительность: 61:44
Трэклист:
1. Introdução / Valsa de Eurydice
2. Samba do Avião
3. Tributo a Dorival Caymmi
a) Rosas de abril
b) Rosa
4. Jongo
5. Formosa
6. Variações sobre Asa Branca
7. Naquele tempo
8. Rosa
9. Gente Humilde
10. Samba em Prelúdio
11. Chôro em menor
12. Gracioso
13. Violão vadio
Baden Powell, guitar
Доп. информация: Рип с сети. Логов нет. Ковры имеются.
 
auCDtect
-----------------------
DON'T MODIFY THIS FILE
-----------------------
PERFORMER: auCDtect Task Manager, ver. 1.0.3 B1 build 1.0.3.0
Copyright (c) 2008, 2009 y-soft. All rights reserved
http://y-soft.110mb.com
ANALYZER: auCDtect: CD records authenticity detector, version 0.8.2
Copyright (c) 2004 Oleg Berngardt. All rights reserved.
Copyright (c) 2004 Alexander Djourik. All rights reserved.
FILE: Baden Powell - Live at the Rio Jazz Club.flac
Size: 258431157 Hash: 079B2F569CBC6623A7AAF002FE06E08F Accuracy: -m0
Conclusion: CDDA 100%
Signature: 45E3D5811637A966A2EC9F49545191FD50B8E7A4
 
CUE Sheet
REM DATE 1990
REM DISCID B30E2D0D
REM COMMENT "ExactAudioCopy v0.99pb3"
CATALOG 0000000000000
PERFORMER "Baden Powell"
TITLE "Live at the Rio Jazz Club"
FILE "Baden Powell - Live at the Rio Jazz Club.flac" WAVE
TRACK 01 AUDIO
TITLE "Track01"
PERFORMER "Baden Powell"
INDEX 00 00:00:00
INDEX 01 00:00:32
TRACK 02 AUDIO
TITLE "Track02"
PERFORMER "Baden Powell"
INDEX 01 05:50:62
TRACK 03 AUDIO
TITLE "Track03"
PERFORMER "Baden Powell"
INDEX 01 09:44:60
TRACK 04 AUDIO
TITLE "Track04"
PERFORMER "Baden Powell"
INDEX 01 17:59:27
TRACK 05 AUDIO
TITLE "Track05"
PERFORMER "Baden Powell"
INDEX 01 21:58:55
TRACK 06 AUDIO
TITLE "Track06"
PERFORMER "Baden Powell"
INDEX 01 24:41:35
TRACK 07 AUDIO
TITLE "Track07"
PERFORMER "Baden Powell"
INDEX 01 34:02:12
TRACK 08 AUDIO
TITLE "Track08"
PERFORMER "Baden Powell"
INDEX 01 38:14:60
TRACK 09 AUDIO
TITLE "Track09"
PERFORMER "Baden Powell"
INDEX 00 43:16:35
INDEX 01 43:17:35
TRACK 10 AUDIO
TITLE "Track10"
PERFORMER "Baden Powell"
INDEX 01 47:22:15
TRACK 11 AUDIO
TITLE "Track11"
PERFORMER "Baden Powell"
INDEX 01 50:12:72
TRACK 12 AUDIO
TITLE "Track12"
PERFORMER "Baden Powell"
INDEX 01 54:05:70
TRACK 13 AUDIO
TITLE "Track13"
PERFORMER "Baden Powell"
INDEX 01 56:33:50
По всем вопросам пишите личное сообщение пользователю M0p94ok.
11:11
243
Нет комментариев. Ваш будет первым!