Поиск

(Brazilian, World Fusion, Piano, Mandolin, Guitar) Hamilton de Holanda & Andre Mehmari - GismontiPascoal (A Musica de Egberto e Hermeto) - 2011, FLAC (tracks+.cue) lossless

(Brazilian, World Fusion, Piano, Mandolin, Guitar) Hamilton de Holanda & Andre Mehmari - GismontiPascoal (A Musica de Egberto e Hermeto) - 2011, FLAC (tracks+.cue) lossless
Треклист:
Hamilton de Holanda & André Mehmari / GismontiPascoal (A Musica de Egberto e Hermeto)
Жанр: Brazilian, World Fusion, Piano, Mandolin, Guitar
Страна-производитель диска: Brazil
Год издания диска: 2011
Издатель (лейбл): Estúdio Monteverdi / Brasilianos
Номер по каталогу: AB1500 / DOP019
Аудио кодек: FLAC (*.flac)
Тип рипа: tracks+.cue
Битрейт аудио: lossless
Продолжительность: 01:18:00
Источник (релизер): GatoMedio
Наличие сканов в содержимом раздачи: да
Треклист:
01 - gismontipascoal [andré, hamilton] (01:57)
02 - são jorge [hermeto] (04:48)
03 - intocável [hermeto] (03:49)
04 - frevo [egberto] (04:59)
05 - sete anéis [egberto] (02:40)
06 - palhaço [egberto] (05:54)
07 - bebê [hermeto] (01:32)
08 - memória e fado [egberto] (05:44)
09 - a fala da paixão [egberto] (06:56)
10 - chorinho pra eles [andré] (02:36)
11 - menino hermeto [hamilton] (05:15)
12 - santo antonio [hermeto] (02:34)
13 - lôro [egberto] (05:00)
14 - o farol que nos guia [hermeto] (04:16)
15 - gismontipascoal - festa [andré, hamilton] (04:32)
16 - música das nuvens e do chão [hermeto] (14:42)
Músicos || The Players:
* André Mehmari - Piano, Vocalise (13) || Piano, Voice (13)
* Hamilton de Holanda - Bandolim, Vocalise (13) || Mandolin, Voice (13)
Participações Especiais || Special Guests:
* Egberto Gismonti - Violão || Acoustic guitar (9)
* Hermeto Pascoal - Teclados, Percussão, Flauta, Voz || Keyboards, percussion, flute, voice (16)
All Songs arranged by André Mehmari and Hamilton de Holanda
 
Лог создания рипа (EAC Log)
Exact Audio Copy V0.99 prebeta 5 from 4. May 2009
EAC extraction logfile from 5. May 2011, 9:51
Hamilton de Holanda & Andrй Mehmari / Gismontipascoal
Used drive : HL-DT-STDVD-RAM GSA-H55N Adapter: 0 ID: 0
Read mode : Secure
Utilize accurate stream : Yes
Defeat audio cache : Yes
Make use of C2 pointers : No
Read offset correction : 102
Overread into Lead-In and Lead-Out : No
Fill up missing offset samples with silence : Yes
Delete leading and trailing silent blocks : No
Null samples used in CRC calculations : Yes
Used interface : Native Win32 interface for Win NT & 2000
Gap handling : Appended to previous track
Used output format : Internal WAV Routines
Sample format : 44.100 Hz; 16 Bit; Stereo
TOC of the extracted CD
Track | Start | Length | Start sector | End sector
---------------------------------------------------------
1 | 0:00.00 | 1:59.08 | 0 | 8932
2 | 1:59.08 | 4:50.00 | 8933 | 30682
3 | 6:49.08 | 3:51.05 | 30683 | 48012
4 | 10:40.13 | 5:01.28 | 48013 | 70615
5 | 15:41.41 | 2:42.00 | 70616 | 82765
6 | 18:23.41 | 5:56.00 | 82766 | 109465
7 | 24:19.41 | 1:34.00 | 109466 | 116515
8 | 25:53.41 | 5:46.38 | 116516 | 142503
9 | 31:40.04 | 6:58.00 | 142504 | 173853
10 | 38:38.04 | 2:37.42 | 173854 | 185670
11 | 41:15.46 | 5:18.07 | 185671 | 209527
12 | 46:33.53 | 2:36.00 | 209528 | 221227
13 | 49:09.53 | 5:02.74 | 221228 | 243951
14 | 54:12.52 | 4:19.58 | 243952 | 263434
15 | 58:32.35 | 4:44.13 | 263435 | 284747
16 | 63:16.48 | 14:43.36 | 284748 | 351008
Track 1
Filename D:\_Music myRips\rerip gismontipascoal\rerip gismontipascoal (wav)\01 - Gismontipascoal.wav
Pre-gap length 0:00:02.00
Peak level 91.1 %
Track quality 100.0 %
Test CRC A210019D
Copy CRC A210019D
Accurately ripped (confidence 1) [3EA35874]
Copy OK
Track 2
Filename D:\_Music myRips\rerip gismontipascoal\rerip gismontipascoal (wav)\02 - Sгo Jorge.wav
Pre-gap length 0:00:01.74
Peak level 99.2 %
Track quality 100.0 %
Test CRC 0FB87F66
Copy CRC 0FB87F66
Accurately ripped (confidence 1) [D43E98D6]
Copy OK
Track 3
Filename D:\_Music myRips\rerip gismontipascoal\rerip gismontipascoal (wav)\03 - Intocбvel.wav
Pre-gap length 0:00:01.74
Peak level 93.3 %
Track quality 100.0 %
Test CRC F1FC4006
Copy CRC F1FC4006
Accurately ripped (confidence 1) [0A028490]
Copy OK
Track 4
Filename D:\_Music myRips\rerip gismontipascoal\rerip gismontipascoal (wav)\04 - Frevo.wav
Pre-gap length 0:00:01.74
Peak level 91.3 %
Track quality 100.0 %
Test CRC 22DB651F
Copy CRC 22DB651F
Accurately ripped (confidence 1) [5365478C]
Copy OK
Track 5
Filename D:\_Music myRips\rerip gismontipascoal\rerip gismontipascoal (wav)\05 - Sete Anйis.wav
Pre-gap length 0:00:01.74
Peak level 80.3 %
Track quality 100.0 %
Test CRC C2AA6931
Copy CRC C2AA6931
Accurately ripped (confidence 1) [9F901C43]
Copy OK
Track 6
Filename D:\_Music myRips\rerip gismontipascoal\rerip gismontipascoal (wav)\06 - Palhaзo.wav
Pre-gap length 0:00:01.74
Peak level 94.9 %
Track quality 99.9 %
Test CRC E211F334
Copy CRC E211F334
Accurately ripped (confidence 1) [A973930B]
Copy OK
Track 7
Filename D:\_Music myRips\rerip gismontipascoal\rerip gismontipascoal (wav)\07 - Bebк.wav
Pre-gap length 0:00:01.74
Peak level 93.5 %
Track quality 100.0 %
Test CRC 58C78194
Copy CRC 58C78194
Accurately ripped (confidence 1) [31B50972]
Copy OK
Track 8
Filename D:\_Music myRips\rerip gismontipascoal\rerip gismontipascoal (wav)\08 - Memoria e Fado.wav
Pre-gap length 0:00:01.74
Peak level 96.7 %
Track quality 100.0 %
Test CRC FB58D02C
Copy CRC FB58D02C
Accurately ripped (confidence 1) [DC9CDE46]
Copy OK
Track 9
Filename D:\_Music myRips\rerip gismontipascoal\rerip gismontipascoal (wav)\09 - A Fala da Paixao.wav
Pre-gap length 0:00:01.74
Peak level 91.0 %
Track quality 100.0 %
Test CRC 39201D3A
Copy CRC 39201D3A
Accurately ripped (confidence 1) [34968C62]
Copy OK
Track 10
Filename D:\_Music myRips\rerip gismontipascoal\rerip gismontipascoal (wav)\10 - Chorinho pra Eles.wav
Pre-gap length 0:00:01.74
Peak level 87.6 %
Track quality 100.0 %
Test CRC 932FB116
Copy CRC 932FB116
Accurately ripped (confidence 1) [E6012CD2]
Copy OK
Track 11
Filename D:\_Music myRips\rerip gismontipascoal\rerip gismontipascoal (wav)\11 - Menino Hermeto.wav
Pre-gap length 0:00:01.74
Peak level 93.8 %
Track quality 99.9 %
Test CRC A8AE5C88
Copy CRC A8AE5C88
Accurately ripped (confidence 1) [A1AC7585]
Copy OK
Track 12
Filename D:\_Music myRips\rerip gismontipascoal\rerip gismontipascoal (wav)\12 - Santo Antonio.wav
Pre-gap length 0:00:03.06
Peak level 96.4 %
Track quality 100.0 %
Test CRC 26389611
Copy CRC 26389611
Accurately ripped (confidence 1) [F542A1E0]
Copy OK
Track 13
Filename D:\_Music myRips\rerip gismontipascoal\rerip gismontipascoal (wav)\13 - Loro.wav
Pre-gap length 0:00:01.74
Peak level 94.5 %
Track quality 100.0 %
Test CRC F3514831
Copy CRC F3514831
Accurately ripped (confidence 1) [989660E8]
Copy OK
Track 14
Filename D:\_Music myRips\rerip gismontipascoal\rerip gismontipascoal (wav)\14 - O Farol que nos Guia.wav
Pre-gap length 0:00:01.74
Peak level 86.9 %
Track quality 100.0 %
Test CRC EF8FF132
Copy CRC EF8FF132
Accurately ripped (confidence 1) [179D9D90]
Copy OK
Track 15
Filename D:\_Music myRips\rerip gismontipascoal\rerip gismontipascoal (wav)\15 - Gismontipascoal (festa).wav
Pre-gap length 0:00:03.57
Peak level 82.4 %
Track quality 100.0 %
Test CRC 9C6C1B06
Copy CRC 9C6C1B06
Accurately ripped (confidence 1) [A3018688]
Copy OK
Track 16
Filename D:\_Music myRips\rerip gismontipascoal\rerip gismontipascoal (wav)\16 - Musica das Nuves e do Chгo.wav
Pre-gap length 0:00:11.39
Peak level 96.4 %
Track quality 100.0 %
Test CRC 90ECE633
Copy CRC 90ECE633
Accurately ripped (confidence 1) [E2E0B281]
Copy OK
All tracks accurately ripped
No errors occurred
End of status report
 
Содержание индексной карты (.CUE)
REM GENRE Instrumental
REM DATE 2011
REM DISCID D0124810
REM COMMENT "ExactAudioCopy v0.99pb5"
PERFORMER "Hamilton de Holanda & Andrй Mehmari"
TITLE "Gismontipascoal"
FILE "01 - Gismontipascoal.wav" WAVE
TRACK 01 AUDIO
TITLE "Gismontipascoal"
PERFORMER "Hamilton de Holanda & Andrй Mehmari"
ISRC BRDOE1000037
INDEX 01 00:00:00
TRACK 02 AUDIO
TITLE "Sгo Jorge"
PERFORMER "Hamilton de Holanda & Andrй Mehmari"
ISRC BRDOE1000038
INDEX 00 01:57:09
FILE "02 - Sгo Jorge.wav" WAVE
INDEX 01 00:00:00
TRACK 03 AUDIO
TITLE "Intocбvel"
PERFORMER "Hamilton de Holanda & Andrй Mehmari"
ISRC BRDOE1000039
INDEX 00 04:48:01
FILE "03 - Intocбvel.wav" WAVE
INDEX 01 00:00:00
TRACK 04 AUDIO
TITLE "Frevo"
PERFORMER "Hamilton de Holanda & Andrй Mehmari"
ISRC BRDOE1000040
INDEX 00 03:49:06
FILE "04 - Frevo.wav" WAVE
INDEX 01 00:00:00
TRACK 05 AUDIO
TITLE "Sete Anйis"
PERFORMER "Hamilton de Holanda & Andrй Mehmari"
ISRC BRDOE1000041
INDEX 00 04:59:29
FILE "05 - Sete Anйis.wav" WAVE
INDEX 01 00:00:00
TRACK 06 AUDIO
TITLE "Palhaзo"
PERFORMER "Hamilton de Holanda & Andrй Mehmari"
ISRC BRDOE1000042
INDEX 00 02:40:01
FILE "06 - Palhaзo.wav" WAVE
INDEX 01 00:00:00
TRACK 07 AUDIO
TITLE "Bebк"
PERFORMER "Hamilton de Holanda & Andrй Mehmari"
ISRC BRDOE1000043
INDEX 00 05:54:01
FILE "07 - Bebк.wav" WAVE
INDEX 01 00:00:00
TRACK 08 AUDIO
TITLE "Memoria e Fado"
PERFORMER "Hamilton de Holanda & Andrй Mehmari"
ISRC BRDOE1000044
INDEX 00 01:32:01
FILE "08 - Memoria e Fado.wav" WAVE
INDEX 01 00:00:00
TRACK 09 AUDIO
TITLE "A Fala da Paixao"
PERFORMER "Hamilton de Holanda & Andrй Mehmari"
ISRC BRDOE1000045
INDEX 00 05:44:39
FILE "09 - A Fala da Paixao.wav" WAVE
INDEX 01 00:00:00
TRACK 10 AUDIO
TITLE "Chorinho pra Eles"
PERFORMER "Hamilton de Holanda & Andrй Mehmari"
ISRC BRDOE1000046
INDEX 00 06:56:01
FILE "10 - Chorinho pra Eles.wav" WAVE
INDEX 01 00:00:00
TRACK 11 AUDIO
TITLE "Menino Hermeto"
PERFORMER "Hamilton de Holanda & Andrй Mehmari"
ISRC BRDOE1000047
INDEX 00 02:35:43
FILE "11 - Menino Hermeto.wav" WAVE
INDEX 01 00:00:00
TRACK 12 AUDIO
TITLE "Santo Antonio"
PERFORMER "Hamilton de Holanda & Andrй Mehmari"
ISRC BRDOE1000048
INDEX 00 05:15:01
FILE "12 - Santo Antonio.wav" WAVE
INDEX 01 00:00:00
TRACK 13 AUDIO
TITLE "Loro"
PERFORMER "Hamilton de Holanda & Andrй Mehmari"
ISRC BRDOE1000049
INDEX 00 02:34:01
FILE "13 - Loro.wav" WAVE
INDEX 01 00:00:00
TRACK 14 AUDIO
TITLE "O Farol que nos Guia"
PERFORMER "Hamilton de Holanda & Andrй Mehmari"
ISRC BRDOE1000050
INDEX 00 05:01:00
FILE "14 - O Farol que nos Guia.wav" WAVE
INDEX 01 00:00:00
TRACK 15 AUDIO
TITLE "Gismontipascoal (festa)"
PERFORMER "Hamilton de Holanda & Andrй Mehmari"
ISRC BRDOE1000051
INDEX 00 04:16:01
FILE "15 - Gismontipascoal (festa).wav" WAVE
INDEX 01 00:00:00
TRACK 16 AUDIO
TITLE "Musica das Nuves e do Chгo"
PERFORMER "Hamilton de Holanda & Andrй Mehmari"
ISRC BRDOE1000052
INDEX 00 04:32:49
FILE "16 - Musica das Nuves e do Chгo.wav" WAVE
INDEX 01 00:00:00
 
Об исполнителях / об альбоме

If you want to find out what’s happening in jazz in South America just now then this performance by two of Brazil’s most exciting players is the perfect place to start.
Hamilton De Holanda is a charismatic virtuoso performer who has revolutionized the Brazilian ten-string bandolim since he first emerged on the music scene in his native Rio de Janeiro, while André Mehmari is considered to be one of the most talented and exciting pianists of his generation, in both popular and classical music.
Short-listed for a Grammy Music award two years ago, De Holanda is a dynamic and engaging player whose frenetic yet soulful playing crosses musical boundaries.
The duo’s latest collaboration 'Gismontipascoal' is a fascinating project that is dedicated to the music of two giants of Brazilian music, Egberto Gismonti and Hermeto Pascoal. (Source: brayjazz.com)
Доп. Инфо. : Внимание! ... 8-го Мая, 2011 года ... - торрент перезалит ... рип заменен .. на Правильный!
21:31
303
Нет комментариев. Ваш будет первым!