Поиск

(Brazilian Vocal Jazz, Bossa Nova) Odette Lara - Contrastes (1966) - 2003, FLAC (tracks+.cue) lossless

Odette Lara
Contrastes (1966)



.
Жанр: Brazilian Vocal Jazz, Bossa Nova | Страна: Brazil
Дата выпуска альбома / диска: 1966 / 2003 | Производитель диска: Universal Music Brasil
Аудио кодек: FLAC | Тип рипа: tracks+.cue | Битрейт аудио: lossless
+ TIF art scans
Формат: Studio Album, Remastered
Источник: original CD, ripped by Flabber
Продолжительность: 28:25


TRACKLiST:
01. Tem Mais Samba (Chico Buarque) (2:34)
02. Cancao Em Modo Menor (Antônio Carlos Jobim - Vinícius de Moraes) (2:47)
03. Apelo (Baden Powell - Vinícius de Moraes) (2:38)
04. Minha Desventura (Carlos Lyra - Vinícius de Moraes) (2:41)
05. Sem Mais Adeus (Francis Hime - Vinícius de Moraes) (1:48)
06. Pra Voce Que Chora (Cancao Para Gongoba) (Edu Lobo - Gianfranco Guarnieri) (2:39)
07. Meu Refrao (Chico Buarque) (2:36)
08. Cancao Do Amor Ausente (Baden Powell - Vinícius de Moraes) (4:26)
09. Funeral Do Lavrador (Chico Buarque - João Cabral de Mello) (2:50)
10. Morrer De Amor (Oscar Castro Neves - Luvercy Fiorini) (3:26)
.
 
EAC log
Exact Audio Copy V0.99 prebeta 5 from 4. May 2009
EAC extraction logfile from 18. November 2009, 21:23
Odette Lara / Contrastes
Used drive : TDK CDRW5200B Adapter: 1 ID: 1
Read mode : Secure
Utilize accurate stream : Yes
Defeat audio cache : Yes
Make use of C2 pointers : No
Read offset correction : 6
Overread into Lead-In and Lead-Out : No
Fill up missing offset samples with silence : Yes
Delete leading and trailing silent blocks : No
Null samples used in CRC calculations : Yes
Used interface : Native Win32 interface for Win NT & 2000
Gap handling : Appended to previous track
Used output format : User Defined Encoder
Selected bitrate : 768 kBit/s
Quality : High
Add ID3 tag : No
Command line compressor : C:\Program Files\Exact Audio Copy\FLAC\FLAC.EXE
Additional command line options : -8 -V -T "ARTIST=%a" -T "TITLE=%t" -T "ALBUM=%g" -T "DATE=%y" -
T "TRACKNUMBER=%n" -T "TOTALTRACKS=%x" -T "GENRE=%m" -T "ALBUM ARTIST=%v" -T "ALBUMARTIST=%v" -
T "COMMENT=EAC V0.99 prebeta 4, Secure Mode, Test & Copy, Accurat
TOC of the extracted CD
Track | Start | Length | Start sector | End sector
---------------------------------------------------------
1 | 0:00.00 | 2:34.33 | 0 | 11582
2 | 2:34.33 | 2:47.20 | 11583 | 24127
3 | 5:21.53 | 2:38.55 | 24128 | 36032
4 | 8:00.33 | 2:41.35 | 36033 | 48142
5 | 10:41.68 | 1:48.35 | 48143 | 56277
6 | 12:30.28 | 2:39.10 | 56278 | 68212
7 | 15:09.38 | 2:36.00 | 68213 | 79912
8 | 17:45.38 | 4:26.57 | 79913 | 99919
9 | 22:12.20 | 2:50.33 | 99920 | 112702
10 | 25:02.53 | 3:26.38 | 112703 | 128190
Track 1
Filename C:\01 - Tem Mais Samba.wav
Pre-gap length 0:00:02.00
Peak level 88.9 %
Track quality 100.0 %
Test CRC D748AE36
Copy CRC D748AE36
Accurately ripped (confidence 1) [E90D506C]
Copy OK
Track 2
Filename C:\02 - Cancao Em Modo Menor.wav
Pre-gap length 0:00:01.61
Peak level 86.8 %
Track quality 100.0 %
Test CRC 14F30E24
Copy CRC 14F30E24
Accurately ripped (confidence 1) [83726B7B]
Copy OK
Track 3
Filename C:\03 - Apelo.wav
Pre-gap length 0:00:01.62
Peak level 88.7 %
Track quality 99.9 %
Test CRC CA3DAF8A
Copy CRC CA3DAF8A
Accurately ripped (confidence 1) [D1471F99]
Copy OK
Track 4
Filename C:\04 - Minha Desventura.wav
Pre-gap length 0:00:01.58
Peak level 87.0 %
Track quality 100.0 %
Test CRC 564298D5
Copy CRC 564298D5
Accurately ripped (confidence 1) [A7750E42]
Copy OK
Track 5
Filename C:\05 - Sem Mais Adeus.wav
Pre-gap length 0:00:01.60
Peak level 88.7 %
Track quality 100.0 %
Test CRC A3A3CB69
Copy CRC A3A3CB69
Accurately ripped (confidence 1) [CF519FD3]
Copy OK
Track 6
Filename C:\06 - Pra Voce Que Chora (Cancao Para Gongoba).wav
Pre-gap length 0:00:01.60
Peak level 83.4 %
Track quality 100.0 %
Test CRC 1AAD935C
Copy CRC 1AAD935C
Accurately ripped (confidence 1) [12800E39]
Copy OK
Track 7
Filename C:\07 - Meu Refrao.wav
Pre-gap length 0:00:01.60
Peak level 84.4 %
Track quality 100.0 %
Test CRC 771A6D21
Copy CRC 771A6D21
Accurately ripped (confidence 1) [297E451A]
Copy OK
Track 8
Filename C:\08 - Cancao Do Amor Ausente.wav
Pre-gap length 0:00:01.61
Peak level 87.2 %
Track quality 100.0 %
Test CRC 3D837999
Copy CRC 3D837999
Accurately ripped (confidence 1) [64BEE539]
Copy OK
Track 9
Filename C:\09 - Funeral Do Lavrador.wav
Pre-gap length 0:00:01.58
Peak level 88.8 %
Track quality 100.0 %
Test CRC C883D81A
Copy CRC C883D81A
Accurately ripped (confidence 1) [0E086672]
Copy OK
Track 10
Filename C:\10 - Morrer De Amor.wav
Pre-gap length 0:00:01.61
Peak level 84.7 %
Track quality 100.0 %
Test CRC BEDFA924
Copy CRC BEDFA924
Accurately ripped (confidence 1) [09F099EA]
Copy OK
All tracks accurately ripped
No errors occurred
End of status report
 
*.cue
REM GENRE Samba
REM DATE 1966
REM DISCID 6D06AD0A
REM COMMENT "ExactAudioCopy v0.99pb5"
PERFORMER "Odette Lara"
TITLE "Contrastes"
FILE "01 - Tem Mais Samba.wav" WAVE
TRACK 01 AUDIO
TITLE "Tem Mais Samba"
PERFORMER "Odette Lara"
INDEX 01 00:00:00
TRACK 02 AUDIO
TITLE "Cancao Em Modo Menor"
PERFORMER "Odette Lara"
INDEX 00 02:32:62
FILE "02 - Cancao Em Modo Menor.wav" WAVE
INDEX 01 00:00:00
TRACK 03 AUDIO
TITLE "Apelo"
PERFORMER "Odette Lara"
INDEX 00 02:45:48
FILE "03 - Apelo.wav" WAVE
INDEX 01 00:00:00
TRACK 04 AUDIO
TITLE "Minha Desventura"
PERFORMER "Odette Lara"
INDEX 00 02:37:11
FILE "04 - Minha Desventura.wav" WAVE
INDEX 01 00:00:00
TRACK 05 AUDIO
TITLE "Sem Mais Adeus"
PERFORMER "Odette Lara"
INDEX 00 02:39:65
FILE "05 - Sem Mais Adeus.wav" WAVE
INDEX 01 00:00:00
TRACK 06 AUDIO
TITLE "Pra Voce Que Chora (Cancao Para Gongoba)"
PERFORMER "Odette Lara"
INDEX 00 01:46:65
FILE "06 - Pra Voce Que Chora (Cancao Para Gongoba).wav" WAVE
INDEX 01 00:00:00
TRACK 07 AUDIO
TITLE "Meu Refrao"
PERFORMER "Odette Lara"
INDEX 00 02:37:40
FILE "07 - Meu Refrao.wav" WAVE
INDEX 01 00:00:00
TRACK 08 AUDIO
TITLE "Cancao Do Amor Ausente"
PERFORMER "Odette Lara"
INDEX 00 02:34:29
FILE "08 - Cancao Do Amor Ausente.wav" WAVE
INDEX 01 00:00:00
TRACK 09 AUDIO
TITLE "Funeral Do Lavrador"
PERFORMER "Odette Lara"
INDEX 00 04:25:13
FILE "09 - Funeral Do Lavrador.wav" WAVE
INDEX 01 00:00:00
TRACK 10 AUDIO
TITLE "Morrer De Amor"
PERFORMER "Odette Lara"
INDEX 00 02:48:62
FILE "10 - Morrer De Amor.wav" WAVE
INDEX 01 00:00:00
 
Audiochecker’s log
AUDIOCHECKER v2.0 beta (build 457) - by Dester - opdester@freemail.hu
~~~~~~~~~~~~~~~~~~~~~~~~~~~~~~~~~~
Started at: вторник, 16. 11. 2010. - 12:57.00
10 files found
01 -===- F:\Odette Lara - Contrastes (1966) 2003 [flac]\01 - Tem Mais Samba.flac
Extracted successfully
Conclusion: this track is CDDA with probability 100%
Tempfile successfully deleted.
02 -===- F:\Odette Lara - Contrastes (1966) 2003 [flac]\02 - Cancao Em Modo Menor.flac
Extracted successfully
Conclusion: this track is CDDA with probability 100%
Tempfile successfully deleted.
03 -===- F:\Odette Lara - Contrastes (1966) 2003 [flac]\03 - Apelo.flac
Extracted successfully
Conclusion: this track is CDDA with probability 100%
Tempfile successfully deleted.
04 -===- F:\Odette Lara - Contrastes (1966) 2003 [flac]\04 - Minha Desventura.flac
Extracted successfully
Conclusion: this track is CDDA with probability 100%
Tempfile successfully deleted.
05 -===- F:\Odette Lara - Contrastes (1966) 2003 [flac]\05 - Sem Mais Adeus.flac
Extracted successfully
Conclusion: this track is CDDA with probability 100%
Tempfile successfully deleted.
06 -===- F:\Odette Lara - Contrastes (1966) 2003 [flac]\06 - Pra Voce Que Chora (Cancao Para Gongoba).flac
Extracted successfully
Conclusion: this track is CDDA with probability 100%
Tempfile successfully deleted.
07 -===- F:\Odette Lara - Contrastes (1966) 2003 [flac]\07 - Meu Refrao.flac
Extracted successfully
Conclusion: this track is CDDA with probability 100%
Tempfile successfully deleted.
08 -===- F:\Odette Lara - Contrastes (1966) 2003 [flac]\08 - Cancao Do Amor Ausente.flac
Extracted successfully
Conclusion: this track is CDDA with probability 100%
Tempfile successfully deleted.
09 -===- F:\Odette Lara - Contrastes (1966) 2003 [flac]\09 - Funeral Do Lavrador.flac
Extracted successfully
Conclusion: this track is CDDA with probability 100%
Tempfile successfully deleted.
10 -===- F:\Odette Lara - Contrastes (1966) 2003 [flac]\10 - Morrer De Amor.flac
Extracted successfully
Conclusion: this track is CDDA with probability 87%
Tempfile successfully deleted.
Finished at: вторник, 16. 11. 2010. - 13:10.27 (operation time: 0:13.26)



Сидирую до первых 10-ти скачавших. Далее раздача поддерживается силами скачавших.
Скачали сами - дайте скачать другим. .
20:26
244
Нет комментариев. Ваш будет первым!