Поиск

(Brazilian Jazz/World Fusion) Flora Purim - 3CD : Stories To Tell(1974)/Encounter(1976)/The Midnight Sun(1988) , FLAC (image+.cue) , lossless

(Brazilian Jazz/World Fusion) Flora Purim - 3CD : Stories To Tell(1974)/Encounter(1976)/The Midnight Sun(1988) , FLAC (image+.cue) , lossless
Треклист:
Flora Purim 3CD : Stories To Tell(1974)/Encounter(1976)/The Midnight Sun(1988)
Жанр: Brazilian Jazz/World Fusion
Аудио кодек: FLAC
Тип рипа: image+.cue
Битрейт аудио: lossless
.
.
.
.
.
.
.
.
.

Трэклист и прочее :
 
Stories To Tell (00:40:28) : Milestone/OJC(USA)-OJCCD 619 2(M 9058)-(1991)

Трэклист:
01. Stories To Tell (3:44)
02. Search For Peace (5:57)
03. Casa Forte (3:56)
04. Insensatez (2:49)
05. Mountain Train (3:17)
06. To Say Goodbye (4:07)
07. Silver Sword (5:41)
08. Vera Cruz (4:14)
09. O Cantador / I Just Want To Be Here (6:42)
 
Лог EAC
Exact Audio Copy V0.99 prebeta 5 from 4. May 2009
Отчёт EAC об извлечении, выполненном 8. мая 2010, 23:31
Flora Purim / Stories To Tell
Дисковод: SONY DVD RW DRX-S70U Adapter: 1 ID: 0
Режим чтения : Достоверность
Использование точного потока : Да
Отключение кэша аудио : Да
Использование указателей C2 : Нет
Коррекция смещения при чтении : 48
Способность читать области Lead-in и Lead-out : Нет
Заполнение пропущенных сэмплов тишиной : Да
Удаление блоков с тишиной в начале и конце : Нет
При вычислениях CRC использовались нулевые сэмплы : Да
Интерфейс : Встроенный Win32-интерфейс для Win NT/2000
Выходной формат : Пользовательский кодировщик
Выбранный битрейт : 768 kBit/s
Качество : Высокий
Добавление ID3-тэга : Да
Утилита сжатия : H:\Program Files\Exact Audio Copy\Flac\flac.exe
Дополнительные параметры : -6 -V -T "ARTIST=%a" -T "TITLE=%t" -T "ALBUM=%g" -T "DATE=%y" -T "TRACKNUMBER=%n" -T "GENRE=%m" -T "COMMENT=%e" %s -o %d
TOC извлечённого CD
Трек | Старт | Длительность | Начальный сектор | Конечный сектор
---------------------------------------------------------------------
1 | 0:00.00 | 3:44.17 | 0 | 16816
2 | 3:44.17 | 5:56.45 | 16817 | 43561
3 | 9:40.62 | 3:56.15 | 43562 | 61276
4 | 13:37.02 | 2:49.03 | 61277 | 73954
5 | 16:26.05 | 3:17.15 | 73955 | 88744
6 | 19:43.20 | 4:06.65 | 88745 | 107259
7 | 23:50.10 | 5:41.37 | 107260 | 132871
8 | 29:31.47 | 4:14.13 | 132872 | 151934
9 | 33:45.60 | 6:42.30 | 151935 | 182114
Характеристики диапазона извлечения и сообщения об ошибках
Выбранный диапазон
Имя файла E:\Flora Purim\Stories To Tell\Flora Purim - Stories To Tell.wav
Пиковый уровень 94.3 %
Качество диапазона 99.8 %
CRC теста BD09726B
CRC копии BD09726B
Копирование... OK
Ошибок не произошло
AccurateRip: сводка
Трек 1 точное извлечение (доверие 3) [05FBAB6C]
Трек 2 точное извлечение (доверие 3) [66EC0017]
Трек 3 точное извлечение (доверие 3) [99ACEB18]
Трек 4 точное извлечение (доверие 3) [3BA4130E]
Трек 5 точное извлечение (доверие 3) [E7028A3E]
Трек 6 точное извлечение (доверие 3) [CB9ABA78]
Трек 7 точное извлечение (доверие 3) [AD59AEAF]
Трек 8 точное извлечение (доверие 3) [3C46C81C]
Трек 9 точное извлечение (доверие 3) [FA4FC3D8]
Все треки извлечены точно
Конец отчёта
 
Лог Audiochecker
AUDIOCHECKER v2.0 beta (build 457) - by Dester - opdester@freemail.hu
~~~~~~~~~~~~~~~~~~~~~~~~~~~~~~~~~~
-=== НЕ РЕДАКТИРУЙТЕ ЭТОТ ФАЙЛ! ===-
Путь: ...\Stories To Tell
1 -=- Flora Purim - Stories To Tell.flac -=- CDDA (100%)
124172916
 
*CUE
REM GENRE Jazz
REM DATE 1974
REM DISCID 7C097C09
REM COMMENT "ExactAudioCopy v0.99pb5"
PERFORMER "Flora Purim"
TITLE "Stories To Tell"
FILE "Flora Purim - Stories To Tell.flac" WAVE
TRACK 01 AUDIO
TITLE "Stories To Tell"
PERFORMER "Flora Purim"
INDEX 01 00:00:00
TRACK 02 AUDIO
TITLE "Search For Peace"
PERFORMER "Flora Purim"
INDEX 00 03:41:47
INDEX 01 03:44:17
TRACK 03 AUDIO
TITLE "Casa Forte"
PERFORMER "Flora Purim"
INDEX 00 09:37:37
INDEX 01 09:40:62
TRACK 04 AUDIO
TITLE "Insensatez"
PERFORMER "Flora Purim"
INDEX 00 13:34:25
INDEX 01 13:37:02
TRACK 05 AUDIO
TITLE "Mountain Train"
PERFORMER "Flora Purim"
INDEX 00 16:22:27
INDEX 01 16:26:05
TRACK 06 AUDIO
TITLE "To Say Goodbye"
PERFORMER "Flora Purim"
INDEX 00 19:40:67
INDEX 01 19:43:20
TRACK 07 AUDIO
TITLE "Silver Sword"
PERFORMER "Flora Purim"
INDEX 00 23:47:30
INDEX 01 23:50:10
TRACK 08 AUDIO
TITLE "Vera Cruz"
PERFORMER "Flora Purim"
INDEX 00 29:29:32
INDEX 01 29:31:47
TRACK 09 AUDIO
TITLE "O Cantador / I Just Want To Be Here"
PERFORMER "Flora Purim"
INDEX 00 33:42:22
INDEX 01 33:45:60
 
Encounter (00:43:01) : Milestone/OJC(USA)-OJCCD 798 2(M 9077)-(1993)

Трэклист:
01. Windows (5:34)
02. Latinas (3:43)
03. Uri (The Wind) (8:08)
04. Dedicated to Bruce (4:16)
05. Above the Rainbow (3:28)
06. Tomara (I Wish) (4:03)
07. Encounter (7:13)
08. Black Narcissus (6:36)
 
Лог EAC
Exact Audio Copy V0.99 prebeta 5 from 4. May 2009
Отчёт EAC об извлечении, выполненном 8. мая 2010, 21:30
Flora Purim / Encounter
Дисковод: SONY DVD RW DRX-S70U Adapter: 1 ID: 0
Режим чтения : Достоверность
Использование точного потока : Да
Отключение кэша аудио : Да
Использование указателей C2 : Нет
Коррекция смещения при чтении : 48
Способность читать области Lead-in и Lead-out : Нет
Заполнение пропущенных сэмплов тишиной : Да
Удаление блоков с тишиной в начале и конце : Нет
При вычислениях CRC использовались нулевые сэмплы : Да
Интерфейс : Встроенный Win32-интерфейс для Win NT/2000
Выходной формат : Пользовательский кодировщик
Выбранный битрейт : 768 kBit/s
Качество : Высокий
Добавление ID3-тэга : Да
Утилита сжатия : H:\Program Files\Exact Audio Copy\Flac\flac.exe
Дополнительные параметры : -6 -V -T "ARTIST=%a" -T "TITLE=%t" -T "ALBUM=%g" -T "DATE=%y" -T "TRACKNUMBER=%n" -T "GENRE=%m" -T "COMMENT=%e" %s -o %d
TOC извлечённого CD
Трек | Старт | Длительность | Начальный сектор | Конечный сектор
---------------------------------------------------------------------
1 | 0:00.00 | 5:33.48 | 0 | 25022
2 | 5:33.48 | 3:43.20 | 25023 | 41767
3 | 9:16.68 | 8:07.60 | 41768 | 78352
4 | 17:24.53 | 4:15.67 | 78353 | 97544
5 | 21:40.45 | 3:28.05 | 97545 | 113149
6 | 25:08.50 | 4:03.10 | 113150 | 131384
7 | 29:11.60 | 7:13.15 | 131385 | 163874
8 | 36:25.00 | 6:36.10 | 163875 | 193584
Характеристики диапазона извлечения и сообщения об ошибках
Выбранный диапазон
Имя файла E:\Flora Purim\Encounter\Flora Purim - Encounter.wav
Пиковый уровень 100.0 %
Качество диапазона 99.9 %
CRC теста C4E01D14
CRC копии C4E01D14
Копирование... OK
Ошибок не произошло
AccurateRip: сводка
Трек 1 точное извлечение (доверие 6) [06EA01D9]
Трек 2 точное извлечение (доверие 6) [D9C3751E]
Трек 3 точное извлечение (доверие 6) [FD5008F2]
Трек 4 точное извлечение (доверие 6) [3951D317]
Трек 5 точное извлечение (доверие 6) [67C815B9]
Трек 6 точное извлечение (доверие 6) [B3CF9D9A]
Трек 7 точное извлечение (доверие 6) [794881FF]
Трек 8 точное извлечение (доверие 6) [AC995592]
Все треки извлечены точно
Конец отчёта
 
Лог Audiochecker
AUDIOCHECKER v2.0 beta (build 457) - by Dester - opdester@freemail.hu
~~~~~~~~~~~~~~~~~~~~~~~~~~~~~~~~~~
-=== НЕ РЕДАКТИРУЙТЕ ЭТОТ ФАЙЛ! ===-
Путь: ...\Encounter
1 -=- Flora Purim - Encounter.flac -=- CDDA (100%)
59985380
 
*CUE
REM GENRE Jazz
REM DATE 1977
REM DISCID 590A1508
REM COMMENT "ExactAudioCopy v0.99pb5"
PERFORMER "Flora Purim"
TITLE "Encounter"
FILE "Flora Purim - Encounter.flac" WAVE
TRACK 01 AUDIO
TITLE "Windows"
PERFORMER "Flora Purim"
INDEX 01 00:00:00
TRACK 02 AUDIO
TITLE "Latinas"
PERFORMER "Flora Purim"
INDEX 00 05:33:45
INDEX 01 05:33:48
TRACK 03 AUDIO
TITLE "Uri (The Wind)"
PERFORMER "Flora Purim"
INDEX 00 09:16:43
INDEX 01 09:16:68
TRACK 04 AUDIO
TITLE "Dedicated to Bruce"
PERFORMER "Flora Purim"
INDEX 00 17:24:50
INDEX 01 17:24:53
TRACK 05 AUDIO
TITLE "Above the Rainbow"
PERFORMER "Flora Purim"
INDEX 00 21:37:58
INDEX 01 21:40:45
TRACK 06 AUDIO
TITLE "Tomara (I Wish)"
PERFORMER "Flora Purim"
INDEX 01 25:08:50
TRACK 07 AUDIO
TITLE "Encounter"
PERFORMER "Flora Purim"
INDEX 00 29:11:40
INDEX 01 29:11:60
TRACK 08 AUDIO
TITLE "Black Narcissus"
PERFORMER "Flora Purim"
INDEX 00 36:24:73
INDEX 01 36:25:00
 
The midnight sun (00:43:00) : Venture/Virgin Records(UK)-CDVE 21-(1988)

Трэклист:
01. Angel eyes (3:18)
02. Light as a feather (6:50)
03. The midnight sun (4:20)
04. Nothing will be as it was (6:50)
05. Las olas (4:49)
06. Flora nova (4:32)
07. A esperan a (3:50)
08. Good morning heartache (3:15)
09. Bodas de prata (5:16)
 
Лог EAC
Exact Audio Copy V0.99 prebeta 5 from 4. May 2009
Отчёт EAC об извлечении, выполненном 8. мая 2010, 22:20
Flora Purim / The midnight sun
Дисковод: SONY DVD RW DRX-S70U Adapter: 1 ID: 0
Режим чтения : Достоверность
Использование точного потока : Да
Отключение кэша аудио : Да
Использование указателей C2 : Нет
Коррекция смещения при чтении : 48
Способность читать области Lead-in и Lead-out : Нет
Заполнение пропущенных сэмплов тишиной : Да
Удаление блоков с тишиной в начале и конце : Нет
При вычислениях CRC использовались нулевые сэмплы : Да
Интерфейс : Встроенный Win32-интерфейс для Win NT/2000
Выходной формат : Пользовательский кодировщик
Выбранный битрейт : 768 kBit/s
Качество : Высокий
Добавление ID3-тэга : Да
Утилита сжатия : H:\Program Files\Exact Audio Copy\Flac\flac.exe
Дополнительные параметры : -6 -V -T "ARTIST=%a" -T "TITLE=%t" -T "ALBUM=%g" -T "DATE=%y" -T "TRACKNUMBER=%n" -T "GENRE=%m" -T "COMMENT=%e" %s -o %d
TOC извлечённого CD
Трек | Старт | Длительность | Начальный сектор | Конечный сектор
---------------------------------------------------------------------
1 | 0:00.22 | 3:18.33 | 22 | 14904
2 | 3:18.55 | 6:50.12 | 14905 | 45666
3 | 10:08.67 | 4:19.45 | 45667 | 65136
4 | 14:28.37 | 6:49.70 | 65137 | 95881
5 | 21:18.32 | 4:48.73 | 95882 | 117554
6 | 26:07.30 | 4:32.10 | 117555 | 137964
7 | 30:39.40 | 3:49.70 | 137965 | 155209
8 | 34:29.35 | 3:14.65 | 155210 | 169824
9 | 37:44.25 | 5:15.67 | 169825 | 193516
Характеристики диапазона извлечения и сообщения об ошибках
Выбранный диапазон
Имя файла E:\Flora Purim\The Midnight Sun\Flora Purim - The midnight sun.wav
Пиковый уровень 92.7 %
Качество диапазона 100.0 %
CRC теста 369069AD
CRC копии 369069AD
Копирование... OK
Ошибок не произошло
AccurateRip: сводка
Трек 1 точное извлечение (доверие 1) [99E5295C]
Трек 2 точное извлечение (доверие 1) [2DDAD491]
Трек 3 точное извлечение (доверие 1) [8E9171D8]
Трек 4 точное извлечение (доверие 1) [F24A530B]
Трек 5 точное извлечение (доверие 1) [46801BA2]
Трек 6 точное извлечение (доверие 1) [4052FAFB]
Трек 7 точное извлечение (доверие 1) [3973253D]
Трек 8 точное извлечение (доверие 1) [CC1F8A4F]
Трек 9 точное извлечение (доверие 1) [3A54BBB9]
Все треки извлечены точно
Конец отчёта
 
Лог Audiochecker
AUDIOCHECKER v2.0 beta (build 457) - by Dester - opdester@freemail.hu
~~~~~~~~~~~~~~~~~~~~~~~~~~~~~~~~~~
-=== НЕ РЕДАКТИРУЙТЕ ЭТОТ ФАЙЛ! ===-
Путь: ...\The Midnight Sun
1 -=- Flora Purim - The midnight sun.flac -=- CDDA (100%)
84675364
 
*CUE
REM GENRE Jazz
REM DATE 1988
REM DISCID 620A1409
REM COMMENT "ExactAudioCopy v0.99pb5"
PERFORMER "Flora Purim"
TITLE "The midnight sun"
FILE "Flora Purim - The midnight sun.flac" WAVE
TRACK 01 AUDIO
TITLE "Angel eyes"
PERFORMER "Flora Purim"
INDEX 00 00:00:00
INDEX 01 00:00:22
TRACK 02 AUDIO
TITLE "Light as a feather"
PERFORMER "Flora Purim"
INDEX 01 03:18:55
TRACK 03 AUDIO
TITLE "The midnight sun"
PERFORMER "Flora Purim"
INDEX 00 10:07:50
INDEX 01 10:08:67
TRACK 04 AUDIO
TITLE "Nothing will be as it was"
PERFORMER "Flora Purim"
INDEX 00 14:27:37
INDEX 01 14:28:37
TRACK 05 AUDIO
TITLE "Las olas"
PERFORMER "Flora Purim"
INDEX 00 21:18:20
INDEX 01 21:18:32
TRACK 06 AUDIO
TITLE "Flora nova"
PERFORMER "Flora Purim"
INDEX 01 26:07:30
TRACK 07 AUDIO
TITLE "A esperan a"
PERFORMER "Flora Purim"
INDEX 01 30:39:40
TRACK 08 AUDIO
TITLE "Good morning heartache"
PERFORMER "Flora Purim"
INDEX 00 34:28:05
INDEX 01 34:29:35
TRACK 09 AUDIO
TITLE "Bodas de prata"
PERFORMER "Flora Purim"
INDEX 00 37:42:65
INDEX 01 37:44:25
рипы мои с оригинальных cd из моей коллекции .
15:44
412
Нет комментариев. Ваш будет первым!