Поиск

(Brazilian Jazz/Bossa Nova/Vocal Jazz) O Quarteto - Antologia Da Bossa Nova, 20 Anos Depois - 1977, FLAC (image+.cue), lossless

Треклист:
O Quarteto - Antologia Da Bossa Nova, 20 Anos Depois
Жанр: Brazilian Jazz/Bossa Nova/Vocal Jazz
Год выпуска диска: 1977
Производитель диска: Philips - 6349 301 - Brazil
Источник: My CD
Аудио кодек: FLAC
Тип рипа: image+.cue
Битрейт аудио: lossless
Продолжительность: 37:08
Трэклист:
01 - Zelao/O Nosso Olhar (2:45)
02 - A Morte De Um Deus De Sal/O Barquinho (2:53)
03 - Ceu E Mar (3:26)
04 - Vou Deitar E Rolar (Quaquaraquaqua)/Deixa (2:50)
05 - Corcovado/Insensatez/Desafinado (4:51)
06 - Preciso Aprender A Ser So/Samba De Verao (3:08)
07 - Primavera/Maria Do Maranhao/Marcha Da Quarta-Feira De Cinzas (5:24)
08 - Oba-La-La (2:47)
09 - Moça Flor/Tristeza De Nos Dois (3:48)
10 - Manha De Carnaval (3:13)
 
Scans
 
Info
This is O Quarteto - Antologia da Bossa Nova 20 Anos Depois (1977), for Philips. O Quarteto is a vocal group that released only two self-titled albums in the late 60's, in spite of the active participation they had on several Festivais da Cancao. Antologia da Bossa Nova 20 Anos Depois was released with an interval of 9 years between the second LP. I do not have available info of the reasons they do not made albums, since they are a great vocal group that is always backed up by renowned musicians, as you can check bellow at personnel listing.
Personnel
O QUARTETO
Paulinho Palarico Correa
Walter Gozzo
Carlos Alberto de Lima Vianna
Hermes Antonio Dos Reis
Vocal Arrangements
Carlos Alberto de Lima Vianna & Walter Gozzo
Arrangements
Cesar Camargo Mariano
Cesar Camargo Mariano
(bass, piano, fender, syntorchestra, percussion)
Dudu Fortes
(drums, percussion)
Carlos Alberto de Lima Vianna
(guitar)
 
EAC Лог
Exact Audio Copy V0.99 prebeta 5 from 4. May 2009
EAC extraction logfile from 6. March 2010, 15:42
O Quarteto / Antologia Da Bossa Nova, 20 Anos Depois
Used drive : HL-DT-STDVDRAM GH20NS15 Adapter: 0 ID: 0
Read mode : Secure
Utilize accurate stream : Yes
Defeat audio cache : Yes
Make use of C2 pointers : No
Read offset correction : 667
Overread into Lead-In and Lead-Out : No
Fill up missing offset samples with silence : Yes
Delete leading and trailing silent blocks : No
Null samples used in CRC calculations : Yes
Used interface : Installed external ASPI interface
Used output format : User Defined Encoder
Selected bitrate : 1024 kBit/s
Quality : High
Add ID3 tag : No
Command line compressor : C:\Program Files\Exact Audio Copy\Flac\flac.exe
Additional command line options : -8 -A tukey(0.25) -A gauss(0.1875) -b 4096 -V -T "artist=%a" -T "title=%t" -T "album=%g" -T "date=%y" -T "tracknumber=%n" -T "genre=%m" %s --sector-align
TOC of the extracted CD
Track | Start | Length | Start sector | End sector
---------------------------------------------------------
1 | 0:00.00 | 4:27.27 | 0 | 20051
2 | 4:27.27 | 2:55.70 | 20052 | 33246
3 | 7:23.22 | 3:28.60 | 33247 | 48906
4 | 10:52.07 | 2:52.11 | 48907 | 61817
5 | 13:44.18 | 4:53.72 | 61818 | 83864
6 | 18:38.15 | 3:10.10 | 83865 | 98124
7 | 21:48.25 | 5:26.08 | 98125 | 122582
8 | 27:14.33 | 2:49.24 | 122583 | 135281
9 | 30:03.57 | 3:50.74 | 135282 | 152605
10 | 33:54.56 | 3:13.37 | 152606 | 167117
Range status and errors
Selected range
Filename D:\Torrents.ru\O Quarteto\O Quarteto - Antologia Da Bossa Nova, 20 Anos Depois\O Quarteto - Antologia Da Bossa Nova, 20 Anos Depois.wav
Peak level 100.0 %
Range quality 100.0 %
Test CRC 981654F8
Copy CRC 981654F8
Copy OK
No errors occurred
End of status report
 
Audiochecker
AUDIOCHECKER v2.0 beta (build 457) - by Dester - opdester@freemail.hu
~~~~~~~~~~~~~~~~~~~~~~~~~~~~~~~~~~
-=== DO NOT EDIT THIS FILE! ===-
Path: ...\O Quarteto - Antologia Da Bossa Nova, 20 Anos Depois
1 -=- O Quarteto - Antologia Da Bossa Nova, 20 Anos Depois.flac -=- CDDA (100%)
32174660
14:37
302
Нет комментариев. Ваш будет первым!