Поиск

(Brazilian Jazz/Bossa Nova) Lisa Ono - Soul & Bossa - 2007, FLAC (tracks)

Треклист:
Lisa Ono - Soul & Bossa
Жанр: Brazilian Jazz/Bossa Nova
Формат: FLAC (tracks)
Продолжительность: 00:46:54
Release Date: 17.07.2007
Label: EMI
Трэклист:
Soul & Bossa (2007)
01. For Once In My Life (3:08)
02. (Sittin' On)The Dock Of The Bay (4:08)
03. You've Got A Friend (4:37)
04. Family (2:49)
05. Overjoyed (4:47)
06. Georgia On My Mind (3:38)
07. I Got You (I Feel Good) (4:04)
08. Nada Mais - Lately (5:27)
09. I Can't Stop Loving You (4:08)
10. Unchain My Heart (3:04)
11. What's Going On (3:55)
12. Eu Voce (Bonus Track) (3:09)
 
Отчёт EAC
Exact Audio Copy V0.99 prebeta 1 from 25. May 2007
Отчёт EAC об извлечении, выполненном 11. сентября 2007, 20:47
Lisa Ono / Soul & Bossa
Дисковод: _NEC DVD_RW ND-4570A Adapter: 1 ID: 1
Режим чтения : Достоверность
Использование точного потока : Да
Отключение кэша аудио : Да
Использование указателей C2 : Нет
Коррекция смещения при чтении : 48
Способность читать области Lead-in и Lead-out : Нет
Заполнение пропущенных сэмплов тишиной : Да
Удаление блоков с тишиной в начале и конце : Нет
Интерфейс : Установленный внешний ASPI-интерфейс
Обработка зазоров : Не обнаружено, добавлено к предыдущему треку
Выходной формат : Пользовательский кодировщик
Выбранный битрейт : 1024 kBit/s
Качество : Высокий
Добавление ID3-тэга : Да
Утилита сжатия : C:\Program Files\Exact Audio Copy\flac-1.2.0-win\bin\flac.exe
Дополнительные параметры : -8 -V -T "artist=%a" -T "title=%t" -T "album=%g" -T "date=%y" -T "tracknumber=%n" -T "genre=%m" -T "comment=Innochka" %s
TOC извлечённого CD
Трек | Старт | Длительность | Начальный сектор | Конечный сектор
---------------------------------------------------------------------
1 | 0:00.00 | 3:08.46 | 0 | 14145
2 | 3:08.46 | 4:08.57 | 14146 | 32802
3 | 7:17.28 | 4:37.64 | 32803 | 53641
4 | 11:55.17 | 2:49.74 | 53642 | 66390
5 | 14:45.16 | 4:47.28 | 66391 | 87943
6 | 19:32.44 | 3:38.43 | 87944 | 104336
7 | 23:11.12 | 4:04.41 | 104337 | 122677
8 | 27:15.53 | 5:27.62 | 122678 | 147264
9 | 32:43.40 | 4:08.16 | 147265 | 165880
10 | 36:51.56 | 3:04.53 | 165881 | 179733
11 | 39:56.34 | 3:55.73 | 179734 | 197431
12 | 43:52.32 | 3:09.10 | 197432 | 211616
Трек 1
Имя файла G:\Imidg\Новая папка\Liza Ono\+Lisa Ono - Soul & Bossa\01 - For Once In My Life.wav
Пиковый уровень 100.0 %
Качество трека 99.9 %
CRC копии B92BB751
Копирование... OK
Трек 2
Имя файла G:\Imidg\Новая папка\Liza Ono\+Lisa Ono - Soul & Bossa\02 - (Sittin' On)The Dock Of The Bay.wav
Пиковый уровень 94.9 %
Качество трека 100.0 %
CRC копии B72D03D2
Копирование... OK
Трек 3
Имя файла G:\Imidg\Новая папка\Liza Ono\+Lisa Ono - Soul & Bossa\03 - You've Got A Friend.wav
Пиковый уровень 99.9 %
Качество трека 100.0 %
CRC копии 5291D9D4
Копирование... OK
Трек 4
Имя файла G:\Imidg\Новая папка\Liza Ono\+Lisa Ono - Soul & Bossa\04 - Family.wav
Пиковый уровень 100.0 %
Качество трека 99.9 %
CRC копии C666CBB9
Копирование... OK
Трек 5
Имя файла G:\Imidg\Новая папка\Liza Ono\+Lisa Ono - Soul & Bossa\05 - Overjoyed.wav
Пиковый уровень 100.0 %
Качество трека 100.0 %
CRC копии 94508C1B
Копирование... OK
Трек 6
Имя файла G:\Imidg\Новая папка\Liza Ono\+Lisa Ono - Soul & Bossa\06 - Geogia On My Mind.wav
Пиковый уровень 100.0 %
Качество трека 100.0 %
CRC копии 8361DB00
Копирование... OK
Трек 7
Имя файла G:\Imidg\Новая папка\Liza Ono\+Lisa Ono - Soul & Bossa\07 - I Got You (I Feel Good).wav
Пиковый уровень 100.0 %
Качество трека 100.0 %
CRC копии 5CC59EC9
Копирование... OK
Трек 8
Имя файла G:\Imidg\Новая папка\Liza Ono\+Lisa Ono - Soul & Bossa\08 - Nada Mais - Lately.wav
Пиковый уровень 91.7 %
Качество трека 100.0 %
CRC копии F32CE3E5
Копирование... OK
Трек 9
Имя файла G:\Imidg\Новая папка\Liza Ono\+Lisa Ono - Soul & Bossa\09 - I Can't Stop Loving You.wav
Пиковый уровень 100.0 %
Качество трека 100.0 %
CRC копии BC911F9D
Копирование... OK
Трек 10
Имя файла G:\Imidg\Новая папка\Liza Ono\+Lisa Ono - Soul & Bossa\10 - Unchain My Heart.wav
Пиковый уровень 100.0 %
Качество трека 100.0 %
CRC копии 8E7B0EB7
Копирование... OK
Трек 11
Имя файла G:\Imidg\Новая папка\Liza Ono\+Lisa Ono - Soul & Bossa\11 - What's Going On.wav
Пиковый уровень 99.6 %
Качество трека 100.0 %
CRC копии 7AE6B2FF
Копирование... OK
Трек 12
Имя файла G:\Imidg\Новая папка\Liza Ono\+Lisa Ono - Soul & Bossa\12 - Eu Voce (Bonus Track).wav
Пиковый уровень 98.8 %
Качество трека 100.0 %
CRC копии 3A024235
Копирование... OK
Ошибок не произошло
Конец отчёта
23:22
369
Нет комментариев. Ваш будет первым!