Поиск

(Brazilian Jazz, World Fusion) Irio De Paula - Sarava Jobim - 2000, FLAC (image+.cue), lossless

(Brazilian Jazz, World Fusion) Irio De Paula - Sarava Jobim - 2000, FLAC (image+.cue), lossless
Издатель (лейбл):
Треклист:
Irio De Paula - Sarava Jobim
Жанр: Brazilian Jazz, World Fusion
Страна-производитель диска: США
Год издания: 2000
Издатель (лейбл): Pacific Time
Номер по каталогу: PTE8519-2
Аудиокодек: FLAC (*.flac)
Тип рипа: image+.cue
Битрейт аудио: lossless
Продолжительность: 49:57
Источник (релизер): диск из моей коллекции
Наличие сканов в содержимом раздачи: да
Треклист:
01. O morro (De Moraes) - 4:32
02. Antigua (Jobim) - 5:36
03. Triste (Jobim) - 3:07
04. Garota de Ipanema (De Moraes) - 4:15
05. Corcovado (Jobim) - 5:14
06. Se todos fossem iguais a voce (De Moraes) - 4:06
07. Desafinado (Mendonca) - 4:57
08. Dindi (Gilbert-Oliveira) - 5:05
09. Samba de uma nota so (Mendonca) - 3:11
10. Insensatez (De Moraes) - 4:02
11. So danco samba (De Moraes) - 1:43
12. Tereza my love (Jobim) - 4:09
Состав:
Irio De Paula - guitar
Riccardo Ballerini, Vincenzo Romano (#1,3,6,9) - keyboards
 
Лог создания рипа
Exact Audio Copy V1.0 beta 1 from 15. November 2010
EAC extraction logfile from 1. June 2012, 2:10
Irio De Paula / Sarava Jobim
Used drive : HL-DT-STDVDRAM GH20NS10 Adapter: 5 ID: 0
Read mode : Secure
Utilize accurate stream : Yes
Defeat audio cache : Yes
Make use of C2 pointers : No
Read offset correction : 667
Overread into Lead-In and Lead-Out : No
Fill up missing offset samples with silence : Yes
Delete leading and trailing silent blocks : No
Null samples used in CRC calculations : Yes
Used interface : Native Win32 interface for Win NT & 2000
Used output format : User Defined Encoder
Selected bitrate : 768 kBit/s
Quality : High
Add ID3 tag : No
Command line compressor : C:\Program Files\Exact Audio Copy\Flac\flac.exe
Additional command line options : -8 -V -T "ARTIST=%a" -T "TITLE=%t" -T "ALBUM=%g" -T "DATE=%y" -T "TRACKNUMBER=%n" -T "TOTALTRACKS=%x" -T "GENRE=%m" -T "ALBUMARTIST=%v" -T "ALBUM ARTIST=%v" -T "COMMENT=EAC Secure Mode, Test & Copy, AccurateRip, FLAC -8" %s
TOC of the extracted CD
Track | Start | Length | Start sector | End sector
---------------------------------------------------------
1 | 0:00.00 | 4:32.60 | 0 | 20459
2 | 4:32.60 | 5:36.22 | 20460 | 45681
3 | 10:09.07 | 3:07.55 | 45682 | 59761
4 | 13:16.62 | 4:15.08 | 59762 | 78894
5 | 17:31.70 | 5:14.47 | 78895 | 102491
6 | 22:46.42 | 4:06.72 | 102492 | 121013
7 | 26:53.39 | 4:57.68 | 121014 | 143356
8 | 31:51.32 | 5:05.02 | 143357 | 166233
9 | 36:56.34 | 3:11.45 | 166234 | 180603
10 | 40:08.04 | 4:02.48 | 180604 | 198801
11 | 44:10.52 | 1:43.30 | 198802 | 206556
12 | 45:54.07 | 4:09.73 | 206557 | 225304
Range status and errors
Selected range
Filename F:\audio\Irio De Paula - Sarava Jobim.wav
Peak level 99.8 %
Extraction speed 0.5 X
Range quality 100.0 %
Test CRC F3BC1115
Copy CRC F3BC1115
Copy OK
No errors occurred
AccurateRip summary
Track 1 not present in database
Track 2 not present in database
Track 3 not present in database
Track 4 not present in database
Track 5 not present in database
Track 6 not present in database
Track 7 not present in database
Track 8 not present in database
Track 9 not present in database
Track 10 not present in database
Track 11 not present in database
Track 12 not present in database
None of the tracks are present in the AccurateRip database
End of status report
==== Log checksum 238A3FDA5D1A17B3AE84CA6C194D31AD45C9A54C22EB363336E6ED8ACC063FAD ====
 
Содержание индексной карты (.CUE)
REM GENRE Jazz
REM DATE 2000
REM DISCID 9C0BBC0C
REM COMMENT "ExactAudioCopy v1.0b1"
PERFORMER "Irio De Paula"
TITLE "Sarava Jobim"
FILE "Irio De Paula - Sarava Jobim.wav" WAVE
TRACK 01 AUDIO
TITLE "O morro"
PERFORMER "Irio De Paula"
INDEX 01 00:00:00
TRACK 02 AUDIO
TITLE "Antigua"
PERFORMER "Irio De Paula"
INDEX 00 04:31:03
INDEX 01 04:32:60
TRACK 03 AUDIO
TITLE "Triste"
PERFORMER "Irio De Paula"
INDEX 00 10:07:25
INDEX 01 10:09:07
TRACK 04 AUDIO
TITLE "Garota de Ipanema"
PERFORMER "Irio De Paula"
INDEX 00 13:15:05
INDEX 01 13:16:62
TRACK 05 AUDIO
TITLE "Corcovado"
PERFORMER "Irio De Paula"
INDEX 00 17:30:13
INDEX 01 17:31:70
TRACK 06 AUDIO
TITLE "Se todos fossem iguais a voce"
PERFORMER "Irio De Paula"
INDEX 00 22:44:60
INDEX 01 22:46:42
TRACK 07 AUDIO
TITLE "Desafinado"
PERFORMER "Irio De Paula"
INDEX 00 26:51:57
INDEX 01 26:53:39
TRACK 08 AUDIO
TITLE "Dindi"
PERFORMER "Irio De Paula"
INDEX 00 31:49:50
INDEX 01 31:51:32
TRACK 09 AUDIO
TITLE "Samba de uma nota so"
PERFORMER "Irio De Paula"
INDEX 00 36:54:52
INDEX 01 36:56:34
TRACK 10 AUDIO
TITLE "Insensatez"
PERFORMER "Irio De Paula"
INDEX 00 40:06:22
INDEX 01 40:08:04
TRACK 11 AUDIO
TITLE "So danco samba"
PERFORMER "Irio De Paula"
INDEX 00 44:08:70
INDEX 01 44:10:52
TRACK 12 AUDIO
TITLE "Tereza my love"
PERFORMER "Irio De Paula"
INDEX 00 45:52:25
INDEX 01 45:54:07
 
Review by Ken Dryden
Guitarist Irio de Paula is a very talented South American master of bossa nova and samba, but he is hampered somewhat by the commercial backgrounds surrounding his marvelous solos on this studio date. With an unidentified rhythm section and the bland keyboard work of Riccardo Ballerini, his brilliant effort is shortchanged by Ballerini's uninspired background charts. If one can tune out the keyboards and string section, it is possible to appreciate de Paula's performances of "Triste," "Desafinado," "Dindi," and "So Danco Samba." But de Paula has been far better served by the musicians with whom he has been paired when recording for producer Paolo Piangiarelli's Philology label.
03:25
437
Нет комментариев. Ваш будет первым!