Поиск

(Brazilian Jazz, World Fusion) [CD] Gilberto Gil - As Cancoes De Eu, Tu, Eles (2000) - 2002, FLAC (tracks+.cue), lossless

(Brazilian Jazz, World Fusion) [CD] Gilberto Gil - As Cancoes De Eu, Tu, Eles (2000) - 2002, FLAC (tracks+.cue), lossless
Gilberto Gil - As Canções De Eu, Tu, Eles (2000) Жанр: Brazilian Jazz, World Fusion
Носитель: CD
Год издания: 2002
Издатель (лейбл): Warner Music Brasil
Номер по каталогу: 092746051-2
Аудиокодек: FLAC (*.flac)
Тип рипа: tracks+.cue
Битрейт аудио: lossless
Продолжительность: 48:05
Источник (релизер): ruskaval
Наличие сканов в содержимом раздачи: да
Треклист:
01. Óia Eu Aqui De Novo (3:39)
02. Baião Da Penha (4:08)
03. Esperando Na Janela (4:21)
04. Juazeiro (3:42)
05. Último Pau-De-Arara (3:20)
06. Asa Branca (3:37)
07. Qui Nem Jiló (3:25)
08. Assum Preto (3:20)
09. Pau-De-Arara (3:12)
10. A Volta Da Asa Branca (4:31)
11. O Amor Daqui De Casa (2:29)
12. As Pegadas Do Amor (3:29)
13. Lamento Sertanejo (4:21)
14. Casinha Feliz (0:32)
 
 
Review by Philip Jandovský
This fine and interesting CD is the soundtrack of the movie Eu Tu Eles (Me You Them) and also a tribute from Gilberto Gil to Luiz Gonzaga, one of the most influential Brazilian artists during the 20th century. Gonzaga is widely known as the King of the Baião, and played a key role in developing and popularizing the different music styles of the Brazilian Northeast, such as baião, xote, and forró. Very much true to rugged, unpolished sound of the original versions, yet managing to add his own unique and personal style, Gil interprets several Gonzaga classics such as "Assum Preto," "Asa Branca," "Juazeiro," and "Qui Nem Jiló." Gil also wrote a few songs of his own especially for this movie soundtrack, such as "As Pegadas do Amor" and the nice and mellow "Lamento Sertanejo." Gil also interprets songs by other baião artists, such as the excellent and vibrant "Esperando na Janela" (written by Manuca, Raimundinho do Acordeon, and Targino Gondim), which was a major hit in Brazil in 2000. This is one of Gil's best albums since the '70s and also a very authentic and down-to-earth tribute to the old masters of the popular music of the Brazilian Northeast region.

 
Лог создания рипа
Exact Audio Copy V1.1 from 23. June 2015
EAC extraction logfile from 14. December 2016, 7:08
Gilberto Gil / As Cancoes De Eu Tu Eles
Used drive : MATSHITADVD+-RW SW830 Adapter: 1 ID: 0
Read mode : Secure
Utilize accurate stream : Yes
Defeat audio cache : Yes
Make use of C2 pointers : No
Read offset correction : 6
Overread into Lead-In and Lead-Out : No
Fill up missing offset samples with silence : Yes
Delete leading and trailing silent blocks : No
Null samples used in CRC calculations : Yes
Used interface : Native Win32 interface for Win NT & 2000
Gap handling : Appended to previous track
Used output format : User Defined Encoder
Selected bitrate : 896 kBit/s
Quality : High
Add ID3 tag : No
Command line compressor : C:\Program Files (x86)\Exact Audio Copy\Flac\flac.exe
Additional command line options : -8 -V -T "ARTIST=%artist%" -T "TITLE=%title%" -T "ALBUM=%albumtitle%" -T "DATE=%year%" -T "TRACKNUMBER=%tracknr%" -T "TOTALTRACKS=%numtracks%" -T "GENRE=%genre%" -T "ALBUMARTIST=%albumartist%" -T "ALBUM ARTIST=%albumartist%" -T "COMMENT=EAC Secure Mode, Test & Copy, AccurateRip, FLAC -8" %source%
TOC of the extracted CD
Track | Start | Length | Start sector | End sector
---------------------------------------------------------
1 | 0:00.00 | 3:39.32 | 0 | 16456
2 | 3:39.32 | 4:07.66 | 16457 | 35047
3 | 7:47.23 | 4:20.71 | 35048 | 54618
4 | 12:08.19 | 3:42.14 | 54619 | 71282
5 | 15:50.33 | 3:20.25 | 71283 | 86307
6 | 19:10.58 | 3:36.73 | 86308 | 102580
7 | 22:47.56 | 3:24.43 | 102581 | 117923
8 | 26:12.24 | 3:19.44 | 117924 | 132892
9 | 29:31.68 | 3:11.41 | 132893 | 147258
10 | 32:43.34 | 4:30.72 | 147259 | 167580
11 | 37:14.31 | 2:28.39 | 167581 | 178719
12 | 39:42.70 | 3:29.05 | 178720 | 194399
13 | 43:12.00 | 4:20.62 | 194400 | 213961
14 | 47:32.62 | 0:32.09 | 213962 | 216370
Track 1
Filename G:\New Rips\Gilberto Gil - As Cancoes De Eu Tu Eles (2000) [FLAC]\01 - Oia Eu Aqui De Novo.wav
Pre-gap length 0:00:02.00
Peak level 97.7 %
Extraction speed 3.5 X
Track quality 99.9 %
Test CRC 3F9AAB31
Copy CRC 3F9AAB31
Accurately ripped (confidence 6) [F0CD2F24] (AR v2)
Copy OK
Track 2
Filename G:\New Rips\Gilberto Gil - As Cancoes De Eu Tu Eles (2000) [FLAC]\02 - Baiao Da Penha.wav
Peak level 97.7 %
Extraction speed 4.7 X
Track quality 100.0 %
Test CRC 7839A8BE
Copy CRC 7839A8BE
Accurately ripped (confidence 6) [B2071463] (AR v2)
Copy OK
Track 3
Filename G:\New Rips\Gilberto Gil - As Cancoes De Eu Tu Eles (2000) [FLAC]\03 - Esperando Na Janela.wav
Peak level 97.1 %
Extraction speed 4.4 X
Track quality 99.9 %
Test CRC 92D4FB90
Copy CRC 92D4FB90
Accurately ripped (confidence 6) [32B16C9F] (AR v2)
Copy OK
Track 4
Filename G:\New Rips\Gilberto Gil - As Cancoes De Eu Tu Eles (2000) [FLAC]\04 - Juazeiro.wav
Peak level 95.2 %
Extraction speed 5.5 X
Track quality 100.0 %
Test CRC C278D4DE
Copy CRC C278D4DE
Accurately ripped (confidence 6) [1750E4E2] (AR v2)
Copy OK
Track 5
Filename G:\New Rips\Gilberto Gil - As Cancoes De Eu Tu Eles (2000) [FLAC]\05 - Ultimo Pau-De-Arara.wav
Peak level 97.7 %
Extraction speed 5.7 X
Track quality 100.0 %
Test CRC CFC21579
Copy CRC CFC21579
Accurately ripped (confidence 5) [F829B708] (AR v2)
Copy OK
Track 6
Filename G:\New Rips\Gilberto Gil - As Cancoes De Eu Tu Eles (2000) [FLAC]\06 - Asa Branca.wav
Pre-gap length 0:00:01.08
Peak level 97.7 %
Extraction speed 6.1 X
Track quality 100.0 %
Test CRC CF8C2F8B
Copy CRC CF8C2F8B
Accurately ripped (confidence 6) [3B64CD65] (AR v2)
Copy OK
Track 7
Filename G:\New Rips\Gilberto Gil - As Cancoes De Eu Tu Eles (2000) [FLAC]\07 - Qui Nem Jilo.wav
Pre-gap length 0:00:01.08
Peak level 97.7 %
Extraction speed 6.4 X
Track quality 100.0 %
Test CRC 6E7C2CE6
Copy CRC 6E7C2CE6
Accurately ripped (confidence 6) [D2386890] (AR v2)
Copy OK
Track 8
Filename G:\New Rips\Gilberto Gil - As Cancoes De Eu Tu Eles (2000) [FLAC]\08 - Assum Preto.wav
Pre-gap length 0:00:01.21
Peak level 96.2 %
Extraction speed 5.7 X
Track quality 100.0 %
Test CRC 7507BD01
Copy CRC 7507BD01
Accurately ripped (confidence 6) [85577262] (AR v2)
Copy OK
Track 9
Filename G:\New Rips\Gilberto Gil - As Cancoes De Eu Tu Eles (2000) [FLAC]\09 - Pau-De-Arara.wav
Peak level 96.3 %
Extraction speed 5.3 X
Track quality 99.9 %
Test CRC 875C6479
Copy CRC 875C6479
Accurately ripped (confidence 6) [DE11B8F5] (AR v2)
Copy OK
Track 10
Filename G:\New Rips\Gilberto Gil - As Cancoes De Eu Tu Eles (2000) [FLAC]\10 - A Volta Da Asa Branca.wav
Peak level 97.0 %
Extraction speed 7.4 X
Track quality 100.0 %
Test CRC 62D3C0A4
Copy CRC 62D3C0A4
Accurately ripped (confidence 6) [7B968FC2] (AR v2)
Copy OK
Track 11
Filename G:\New Rips\Gilberto Gil - As Cancoes De Eu Tu Eles (2000) [FLAC]\11 - O Amor Daqui De Casa.wav
Pre-gap length 0:00:01.47
Peak level 96.0 %
Extraction speed 7.0 X
Track quality 100.0 %
Test CRC 112AFA69
Copy CRC 112AFA69
Accurately ripped (confidence 6) [AA1EFCB3] (AR v2)
Copy OK
Track 12
Filename G:\New Rips\Gilberto Gil - As Cancoes De Eu Tu Eles (2000) [FLAC]\12 - As Pegadas Do Amor.wav
Pre-gap length 0:00:01.08
Peak level 97.7 %
Extraction speed 7.5 X
Track quality 100.0 %
Test CRC 892B1368
Copy CRC 892B1368
Accurately ripped (confidence 5) [B0791F3B] (AR v2)
Copy OK
Track 13
Filename G:\New Rips\Gilberto Gil - As Cancoes De Eu Tu Eles (2000) [FLAC]\13 - Lamento Sertanejo.wav
Peak level 100.0 %
Extraction speed 7.9 X
Track quality 100.0 %
Test CRC 90D64BA0
Copy CRC 90D64BA0
Accurately ripped (confidence 5) [403F4C3B] (AR v2)
Copy OK
Track 14
Filename G:\New Rips\Gilberto Gil - As Cancoes De Eu Tu Eles (2000) [FLAC]\14 - Casinha Feliz.wav
Peak level 81.9 %
Extraction speed 4.3 X
Track quality 100.0 %
Test CRC 53B1C889
Copy CRC 53B1C889
Accurately ripped (confidence 5) [357D2ACE] (AR v2)
Copy OK
All tracks accurately ripped
No errors occurred
End of status report
---- CUETools DB Plugin V2.1.6
[CTDB TOCID: rXWh84hoB1ICPQtmeeuxRLxULMI-] found
Submit result: rXWh84hoB1ICPQtmeeuxRLxULMI- has been confirmed
Track | CTDB Status
1 | (4/5) Accurately ripped
2 | (4/5) Accurately ripped
3 | (4/5) Accurately ripped
4 | (4/5) Accurately ripped
5 | (3/5) Accurately ripped, or (1/5) differs in 1 samples @03:05:14
6 | (4/5) Accurately ripped
7 | (4/5) Accurately ripped
8 | (4/5) Accurately ripped
9 | (4/5) Accurately ripped
10 | (4/5) Accurately ripped
11 | (4/5) Accurately ripped
12 | (4/5) Accurately ripped
13 | (4/5) Accurately ripped
14 | (5/5) Accurately ripped
==== Log checksum 69B49D4EBF2A969EA61D4A7492060F5E10AE56F749BBABA75558D8B708AC30C3 ====
 
Содержание индексной карты (.CUE)
REM GENRE World
REM DATE 2000
REM DISCID CD0B440E
REM COMMENT "ExactAudioCopy v1.1"
PERFORMER "Gilberto Gil"
TITLE "As Canções De Eu, Tu, Eles"
FILE "01 - Oia Eu Aqui De Novo.wav" WAVE
TRACK 01 AUDIO
TITLE "Óia Eu Aqui De Novo"
PERFORMER "Gilberto Gil"
INDEX 01 00:00:00
FILE "02 - Baiao Da Penha.wav" WAVE
TRACK 02 AUDIO
TITLE "Baião Da Penha"
PERFORMER "Gilberto Gil"
INDEX 01 00:00:00
FILE "03 - Esperando Na Janela.wav" WAVE
TRACK 03 AUDIO
TITLE "Esperando Na Janela"
PERFORMER "Gilberto Gil"
INDEX 01 00:00:00
FILE "04 - Juazeiro.wav" WAVE
TRACK 04 AUDIO
TITLE "Juazeiro"
PERFORMER "Gilberto Gil"
INDEX 01 00:00:00
FILE "05 - Ultimo Pau-De-Arara.wav" WAVE
TRACK 05 AUDIO
TITLE "Último Pau-De-Arara"
PERFORMER "Gilberto Gil"
INDEX 01 00:00:00
TRACK 06 AUDIO
TITLE "Asa Branca"
PERFORMER "Gilberto Gil"
INDEX 00 03:19:17
FILE "06 - Asa Branca.wav" WAVE
INDEX 01 00:00:00
TRACK 07 AUDIO
TITLE "Qui Nem Jiló"
PERFORMER "Gilberto Gil"
INDEX 00 03:35:65
FILE "07 - Qui Nem Jilo.wav" WAVE
INDEX 01 00:00:00
TRACK 08 AUDIO
TITLE "Assum Preto"
PERFORMER "Gilberto Gil"
INDEX 00 03:23:22
FILE "08 - Assum Preto.wav" WAVE
INDEX 01 00:00:00
FILE "09 - Pau-De-Arara.wav" WAVE
TRACK 09 AUDIO
TITLE "Pau-De-Arara"
PERFORMER "Gilberto Gil"
INDEX 01 00:00:00
FILE "10 - A Volta Da Asa Branca.wav" WAVE
TRACK 10 AUDIO
TITLE "A Volta Da Asa Branca"
PERFORMER "Gilberto Gil"
INDEX 01 00:00:00
TRACK 11 AUDIO
TITLE "O Amor Daqui De Casa"
PERFORMER "Gilberto Gil"
INDEX 00 04:29:25
FILE "11 - O Amor Daqui De Casa.wav" WAVE
INDEX 01 00:00:00
TRACK 12 AUDIO
TITLE "As Pegadas Do Amor"
PERFORMER "Gilberto Gil"
INDEX 00 02:27:31
FILE "12 - As Pegadas Do Amor.wav" WAVE
INDEX 01 00:00:00
FILE "13 - Lamento Sertanejo.wav" WAVE
TRACK 13 AUDIO
TITLE "Lamento Sertanejo"
PERFORMER "Gilberto Gil"
INDEX 01 00:00:00
FILE "14 - Casinha Feliz.wav" WAVE
TRACK 14 AUDIO
TITLE "Casinha Feliz"
PERFORMER "Gilberto Gil"
INDEX 01 00:00:00
00:52
396
Нет комментариев. Ваш будет первым!