Поиск

(Brazilian Jazz, Vocal, Samba, Bossa Nova) Elza Soares - Licao da Vida (1976) [Remastered] - 2010, FLAC (tracks+.cue) lossless

(Brazilian Jazz, Vocal, Samba, Bossa Nova) Elza Soares - Licao da Vida (1976) [Remastered] - 2010, FLAC (tracks+.cue) lossless
Elza Soares
Lição de Vida



.
Жанр: Brazilian Jazz, Vocal, Samba, Bossa Nova | Страна: Brazil
Дата выпуска альбома / диска: 1976 / 2010 | Производитель диска: Discobertas (DB-053), Brazil
Аудио кодек: FLAC | Тип рипа: tracks+.cue | Битрейт аудио: lossless
+ PNG art scans
Формат: Studio Album, Remastered
Источник (релизёр): original CD, ripped by Flabber
Продолжительность: 41:35


~ TRACKLiST ~
01. Malandro (3:11)
02. Cipriano (3:01)
03. Lição da Vida (3:06)
04. Pinta e Borda (2:54)
05. Rainha dos Sete Mares (3:04)
06. A Rosa (2:49)
07. Curumbandê (3:01)
08. Nó Na Tristeza (3:20)
09. Deus e Viola (2:47)
10. Estou Com Raiva de Você (3:09)
11. Samba, Minha Raiz (3:03)
12. Medley - Sal e Pimenta, Mulata Assanhada, Beija-me (2:12)
BONUS TRACKS (recorded live)
13. Vem Chegando a Madrugada (1:22)
14. Quando Vim de Minas (2:15)
15. Sei Lá, Mangueira (2:21)
.
 
EAC log
Exact Audio Copy V0.99 prebeta 5 from 4. May 2009
EAC extraction logfile from 4. April 2011, 21:51
Elza Soares / Licao de Vida
Used drive : PLEXTOR DVDR PX-880SA Adapter: 0 ID: 0
Read mode : Secure
Utilize accurate stream : Yes
Defeat audio cache : Yes
Make use of C2 pointers : No
Read offset correction : 6
Overread into Lead-In and Lead-Out : No
Fill up missing offset samples with silence : Yes
Delete leading and trailing silent blocks : No
Null samples used in CRC calculations : Yes
Used interface : Native Win32 interface for Win NT & 2000
Gap handling : Appended to previous track
Used output format : User Defined Encoder
Selected bitrate : 768 kBit/s
Quality : High
Add ID3 tag : No
Command line compressor : C:\Program Files (x86)\Exact Audio Copy\FLAC\FLAC.EXE
Additional command line options : -8 -V -T "ARTIST=%a" -T "TITLE=%t" -T "ALBUM=%g" -T "DATE=%y" -
T "TRACKNUMBER=%n" -T "TOTALTRACKS=%x" -T "GENRE=%m" -T "ALBUM ARTIST=%v" -T "ALBUMARTIST=%v"
-T "COMMENT=EAC V0.99 prebeta 5, Secure Mode, Test & Copy, Accurat
TOC of the extracted CD
Track | Start | Length | Start sector | End sector
---------------------------------------------------------
1 | 0:00.00 | 3:11.04 | 0 | 14328
2 | 3:11.04 | 3:01.49 | 14329 | 27952
3 | 6:12.53 | 3:06.07 | 27953 | 41909
4 | 9:18.60 | 2:54.29 | 41910 | 54988
5 | 12:13.14 | 3:04.00 | 54989 | 68788
6 | 15:17.14 | 2:49.39 | 68789 | 81502
7 | 18:06.53 | 3:01.19 | 81503 | 95096
8 | 21:07.72 | 3:20.58 | 95097 | 110154
9 | 24:28.55 | 2:47.25 | 110155 | 122704
10 | 27:16.05 | 3:09.59 | 122705 | 136938
11 | 30:25.64 | 3:03.29 | 136939 | 150692
12 | 33:29.18 | 2:12.49 | 150693 | 160641
13 | 35:41.67 | 1:22.72 | 160642 | 166863
14 | 37:04.64 | 2:15.28 | 166864 | 177016
15 | 39:20.17 | 2:21.66 | 177017 | 187657
Track 1
Filename D:\01 - Malandro.wav
Pre-gap length 0:00:02.00
Peak level 99.9 %
Track quality 100.0 %
Test CRC C003D783
Copy CRC C003D783
Track not present in AccurateRip database
Copy OK
Track 2
Filename D:\02 - Cipriano.wav
Pre-gap length 0:00:02.00
Peak level 99.9 %
Track quality 99.9 %
Test CRC D9B5FFDC
Copy CRC D9B5FFDC
Track not present in AccurateRip database
Copy OK
Track 3
Filename D:\03 - Licao de Vida.wav
Pre-gap length 0:00:02.00
Peak level 99.9 %
Track quality 100.0 %
Test CRC 02A49761
Copy CRC 02A49761
Track not present in AccurateRip database
Copy OK
Track 4
Filename D:\04 - Pinta e Borda.wav
Pre-gap length 0:00:02.00
Peak level 99.9 %
Track quality 100.0 %
Test CRC 4A0D9CC9
Copy CRC 4A0D9CC9
Track not present in AccurateRip database
Copy OK
Track 5
Filename D:\05 - Rainha dos Sete Mares.wav
Pre-gap length 0:00:02.00
Peak level 99.9 %
Track quality 100.0 %
Test CRC ECBC0050
Copy CRC ECBC0050
Track not present in AccurateRip database
Copy OK
Track 6
Filename D:\06 - A Rosa.wav
Pre-gap length 0:00:02.00
Peak level 99.9 %
Track quality 100.0 %
Test CRC AD927949
Copy CRC AD927949
Track not present in AccurateRip database
Copy OK
Track 7
Filename D:\07 - Curumbande.wav
Pre-gap length 0:00:02.00
Peak level 99.9 %
Track quality 100.0 %
Test CRC 53AD15FD
Copy CRC 53AD15FD
Track not present in AccurateRip database
Copy OK
Track 8
Filename D:\08 - No Na Tristeza.wav
Pre-gap length 0:00:02.00
Peak level 99.9 %
Track quality 100.0 %
Test CRC 699D5022
Copy CRC 699D5022
Track not present in AccurateRip database
Copy OK
Track 9
Filename D:\09 - Deus e Viola.wav
Pre-gap length 0:00:02.00
Peak level 99.9 %
Track quality 100.0 %
Test CRC 46542952
Copy CRC 46542952
Track not present in AccurateRip database
Copy OK
Track 10
Filename D:\10 - Estou Com Raiva de Voce.wav
Pre-gap length 0:00:02.00
Peak level 99.9 %
Track quality 100.0 %
Test CRC 9258018F
Copy CRC 9258018F
Track not present in AccurateRip database
Copy OK
Track 11
Filename D:\11 - Samba, Minha Raiz.wav
Pre-gap length 0:00:02.00
Peak level 99.9 %
Track quality 100.0 %
Test CRC 994FD7B6
Copy CRC 994FD7B6
Track not present in AccurateRip database
Copy OK
Track 12
Filename D:\12 - Medley - Sal e Pimenta, Mulata Assanhada, Beija-me.wav
Pre-gap length 0:00:02.00
Peak level 99.9 %
Track quality 100.0 %
Test CRC B62CAFCF
Copy CRC B62CAFCF
Track not present in AccurateRip database
Copy OK
Track 13
Filename D:\13 - Vem Chegando a Madrugada.wav
Pre-gap length 0:00:02.00
Peak level 99.9 %
Track quality 100.0 %
Test CRC F86C1397
Copy CRC F86C1397
Track not present in AccurateRip database
Copy OK
Track 14
Filename D:\14 - Quando Vim de Minas.wav
Pre-gap length 0:00:02.00
Peak level 100.0 %
Track quality 100.0 %
Test CRC 598EF291
Copy CRC 598EF291
Track not present in AccurateRip database
Copy OK
Track 15
Filename D:\15 - Sei La, Mangueira.wav
Pre-gap length 0:00:02.00
Peak level 99.9 %
Track quality 100.0 %
Test CRC 2E66DD07
Copy CRC 2E66DD07
Track not present in AccurateRip database
Copy OK
None of the tracks are present in the AccurateRip database
No errors occurred
End of status report
 
*.cue
REM GENRE Samba
REM DATE 1976
REM DISCID C409C60F
REM COMMENT "ExactAudioCopy v0.99pb5"
PERFORMER "Elza Soares"
TITLE "Licao de Vida"
FILE "01 - Malandro.wav" WAVE
TRACK 01 AUDIO
TITLE "Malandro"
PERFORMER "Elza Soares"
ISRC M2FCI7600700
INDEX 01 00:00:00
TRACK 02 AUDIO
TITLE "Cipriano"
PERFORMER "Elza Soares"
ISRC M2FCI7600698
INDEX 00 03:09:04
FILE "02 - Cipriano.wav" WAVE
INDEX 01 00:00:00
TRACK 03 AUDIO
TITLE "Licao de Vida"
PERFORMER "Elza Soares"
ISRC M2FCI7600701
INDEX 00 02:59:49
FILE "03 - Licao de Vida.wav" WAVE
INDEX 01 00:00:00
TRACK 04 AUDIO
TITLE "Pinta e Borda"
PERFORMER "Elza Soares"
ISRC M2FCI7600702
INDEX 00 03:04:07
FILE "04 - Pinta e Borda.wav" WAVE
INDEX 01 00:00:00
TRACK 05 AUDIO
TITLE "Rainha dos Sete Mares"
PERFORMER "Elza Soares"
ISRC M2FCI7600703
INDEX 00 02:52:29
FILE "05 - Rainha dos Sete Mares.wav" WAVE
INDEX 01 00:00:00
TRACK 06 AUDIO
TITLE "A Rosa"
PERFORMER "Elza Soares"
ISRC M2FCI7600704
INDEX 00 03:02:00
FILE "06 - A Rosa.wav" WAVE
INDEX 01 00:00:00
TRACK 07 AUDIO
TITLE "Curumbande"
PERFORMER "Elza Soares"
ISRC M2FCI7600705
INDEX 00 02:47:39
FILE "07 - Curumbande.wav" WAVE
INDEX 01 00:00:00
TRACK 08 AUDIO
TITLE "No Na Tristeza"
PERFORMER "Elza Soares"
ISRC M2FCI7600706
INDEX 00 02:59:19
FILE "08 - No Na Tristeza.wav" WAVE
INDEX 01 00:00:00
TRACK 09 AUDIO
TITLE "Deus e Viola"
PERFORMER "Elza Soares"
ISRC M2FCI7600707
INDEX 00 03:18:58
FILE "09 - Deus e Viola.wav" WAVE
INDEX 01 00:00:00
TRACK 10 AUDIO
TITLE "Estou Com Raiva de Voce"
PERFORMER "Elza Soares"
ISRC M2FCI7600708
INDEX 00 02:45:25
FILE "10 - Estou Com Raiva de Voce.wav" WAVE
INDEX 01 00:00:00
TRACK 11 AUDIO
TITLE "Samba, Minha Raiz"
PERFORMER "Elza Soares"
ISRC M2FCI7600709
INDEX 00 03:07:59
FILE "11 - Samba, Minha Raiz.wav" WAVE
INDEX 01 00:00:00
TRACK 12 AUDIO
TITLE "Medley - Sal e Pimenta, Mulata Assanhada, Beija-me"
PERFORMER "Elza Soares"
ISRC M2FCI7600710
INDEX 00 03:01:29
FILE "12 - Medley - Sal e Pimenta, Mulata Assanhada, Beija-me.wav" WAVE
INDEX 01 00:00:00
TRACK 13 AUDIO
TITLE "Vem Chegando a Madrugada"
PERFORMER "Elza Soares"
ISRC M21VA7500125
INDEX 00 02:10:49
FILE "13 - Vem Chegando a Madrugada.wav" WAVE
INDEX 01 00:00:00
TRACK 14 AUDIO
TITLE "Quando Vim de Minas"
PERFORMER "Elza Soares"
ISRC M21VA7500130
INDEX 00 01:20:72
FILE "14 - Quando Vim de Minas.wav" WAVE
INDEX 01 00:00:00
TRACK 15 AUDIO
TITLE "Sei La, Mangueira"
PERFORMER "Elza Soares"
ISRC M21VA7500137
INDEX 00 02:13:28
FILE "15 - Sei La, Mangueira.wav" WAVE
INDEX 01 00:00:00
 
Audiochecker’s log
AUDIOCHECKER v2.0 beta (build 457) - by Dester - opdester@freemail.hu
~~~~~~~~~~~~~~~~~~~~~~~~~~~~~~~~~~
Started at: среда, 18. 05. 2011. - 12:20.27
15 files found
01 -===- F:\Elza Soares - Licao da Vida (1976) 2010 [flac]\01 - Malandro.flac
Extracted successfully
Conclusion: this track is CDDA with probability 100%
Tempfile successfully deleted.
02 -===- F:\Elza Soares - Licao da Vida (1976) 2010 [flac]\02 - Cipriano.flac
Extracted successfully
Conclusion: this track is CDDA with probability 100%
Tempfile successfully deleted.
03 -===- F:\Elza Soares - Licao da Vida (1976) 2010 [flac]\03 - Licao de Vida.flac
Extracted successfully
Conclusion: this track is CDDA with probability 100%
Tempfile successfully deleted.
04 -===- F:\Elza Soares - Licao da Vida (1976) 2010 [flac]\04 - Pinta e Borda.flac
Extracted successfully
Conclusion: this track is CDDA with probability 100%
Tempfile successfully deleted.
05 -===- F:\Elza Soares - Licao da Vida (1976) 2010 [flac]\05 - Rainha dos Sete Mares.flac
Extracted successfully
Conclusion: this track is CDDA with probability 100%
Tempfile successfully deleted.
06 -===- F:\Elza Soares - Licao da Vida (1976) 2010 [flac]\06 - A Rosa.flac
Extracted successfully
Conclusion: this track is CDDA with probability 100%
Tempfile successfully deleted.
07 -===- F:\Elza Soares - Licao da Vida (1976) 2010 [flac]\07 - Curumbande.flac
Extracted successfully
Conclusion: this track is CDDA with probability 100%
Tempfile successfully deleted.
08 -===- F:\Elza Soares - Licao da Vida (1976) 2010 [flac]\08 - No Na Tristeza.flac
Extracted successfully
Conclusion: this track is CDDA with probability 100%
Tempfile successfully deleted.
09 -===- F:\Elza Soares - Licao da Vida (1976) 2010 [flac]\09 - Deus e Viola.flac
Extracted successfully
Conclusion: this track is CDDA with probability 100%
Tempfile successfully deleted.
10 -===- F:\Elza Soares - Licao da Vida (1976) 2010 [flac]\10 - Estou Com Raiva de Voce.flac
Extracted successfully
Conclusion: this track is CDDA with probability 100%
Tempfile successfully deleted.
11 -===- F:\Elza Soares - Licao da Vida (1976) 2010 [flac]\11 - Samba, Minha Raiz.flac
Extracted successfully
Conclusion: this track is CDDA with probability 100%
Tempfile successfully deleted.
12 -===- F:\Elza Soares - Licao da Vida (1976) 2010 [flac]\12 - Medley - Sal e Pimenta, Mulata Assanhada, Beija-me.flac
Extracted successfully
Conclusion: this track is CDDA with probability 100%
Tempfile successfully deleted.
13 -===- F:\Elza Soares - Licao da Vida (1976) 2010 [flac]\13 - Vem Chegando a Madrugada.flac
Extracted successfully
Conclusion: this track is CDDA with probability 100%
Tempfile successfully deleted.
14 -===- F:\Elza Soares - Licao da Vida (1976) 2010 [flac]\14 - Quando Vim de Minas.flac
Extracted successfully
Conclusion: this track is CDDA with probability 99%
Tempfile successfully deleted.
15 -===- F:\Elza Soares - Licao da Vida (1976) 2010 [flac]\15 - Sei La, Mangueira.flac
Extracted successfully
Conclusion: this track is CDDA with probability 100%
Tempfile successfully deleted.
Finished at: среда, 18. 05. 2011. - 12:25.45 (operation time: 0:05.17)

Сидирую до первых 10-ти скачавших. Далее раздача поддерживается силами скачавших.
Скачали сами - дайте скачать другим. .
21:45
246
Нет комментариев. Ваш будет первым!