Поиск

(Brazilian Jazz, Vocal Jazz) [CD] Jane Duboc - Jane Duboc - 1995, FLAC (tracks+.cue), lossless

(Brazilian Jazz, Vocal Jazz) [CD] Jane Duboc - Jane Duboc - 1995, FLAC (tracks+.cue), lossless
Jane Duboc - Jane Duboc
Жанр: Brazilian Jazz, Vocal Jazz
Носитель: CD
Страна-производитель диска (релиза): Бразилия
Год издания: 1995
Издатель (лейбл): Movieplay Brasil
Номер по каталогу: BS 235
Аудиокодек: FLAC (*.flac)
Тип рипа: tracks+.cue
Битрейт аудио: lossless
Продолжительность: 65:54
Источник (релизер): tulipa0227 (what)
Наличие сканов в содержимом раздачи: да
Треклист:
01. A Flor e o Espinho (3:43)
02. Capim (2:49)
03. Esses Mocos (4:11)
04. Nossos Momentos (3:10)
05. Estrada do Sol (2:44)
06. Primavera (3:50)
07. Folhetim (3:16)
08. Qualquer Coisa (2:49)
09. Acontece (3:26)
10. Linda Flor (4:35)
11. Comecaria Tudo Outra Vez (3:19)
12. Ternura Antiga (3:53)
13. Latin Lover (4:57)
14. Aos Nossos Filhos (3:08)
15. Alguem Como Tu (3:45)
16. Contrato de Separacao (2:51)
17. Bom Dia (3:05)
18. Chove la Fora (3:38)
19. So Louco (2:45)
 
Лог создания рипа
Exact Audio Copy V1.0 beta 4 from 7. December 2014
EAC extraction logfile from 6. March 2015, 0:53
Jane Duboc / Jane Duboc
Used drive : PIONEER DVD-RW DVR-219L Adapter: 1 ID: 1
Read mode : Secure
Utilize accurate stream : Yes
Defeat audio cache : Yes
Make use of C2 pointers : No
Read offset correction : 6
Overread into Lead-In and Lead-Out : No
Fill up missing offset samples with silence : Yes
Delete leading and trailing silent blocks : No
Null samples used in CRC calculations : Yes
Used interface : Native Win32 interface for Win NT & 2000
Gap handling : Appended to previous track
Used output format : Internal WAV Routines
Sample format : 44.100 Hz; 16 Bit; Stereo
TOC of the extracted CD
Track | Start | Length | Start sector | End sector
---------------------------------------------------------
1 | 0:00.32 | 3:42.65 | 32 | 16746
2 | 3:43.22 | 2:48.40 | 16747 | 29386
3 | 6:31.62 | 4:10.45 | 29387 | 48181
4 | 10:42.32 | 3:09.68 | 48182 | 62424
5 | 13:52.25 | 2:43.62 | 62425 | 74711
6 | 16:36.12 | 3:49.55 | 74712 | 91941
7 | 20:25.67 | 3:15.63 | 91942 | 106629
8 | 23:41.55 | 2:49.30 | 106630 | 119334
9 | 26:31.10 | 3:26.20 | 119335 | 134804
10 | 29:57.30 | 4:34.57 | 134805 | 155411
11 | 34:32.12 | 3:18.40 | 155412 | 170301
12 | 37:50.52 | 3:52.63 | 170302 | 187764
13 | 41:43.40 | 4:57.17 | 187765 | 210056
14 | 46:40.57 | 3:08.13 | 210057 | 224169
15 | 49:48.70 | 3:45.22 | 224170 | 241066
16 | 53:34.17 | 2:50.68 | 241067 | 253884
17 | 56:25.10 | 3:05.00 | 253885 | 267759
18 | 59:30.10 | 3:38.25 | 267760 | 284134
19 | 63:08.35 | 2:44.40 | 284135 | 296474
Track 1
Filename C:\Users\Administrator\Desktop\FLAC\01 - A flor e o espinho.wav
Pre-gap length 0:00:02.42
Peak level 90.6 %
Extraction speed 4.3 X
Track quality 100.0 %
Test CRC 9AB3B4C6
Copy CRC 9AB3B4C6
Cannot be verified as accurate (confidence 3) [BE4289FD], AccurateRip returned [E2AE8F22] (AR v2)
Copy OK
Track 2
Filename C:\Users\Administrator\Desktop\FLAC\02 - Capim.wav
Pre-gap length 0:00:00.72
Peak level 92.0 %
Extraction speed 4.4 X
Track quality 100.0 %
Test CRC D5973128
Copy CRC D5973128
Cannot be verified as accurate (confidence 3) [3AFAB4DE], AccurateRip returned [22F70A7D] (AR v2)
Copy OK
Track 3
Filename C:\Users\Administrator\Desktop\FLAC\03 - Esses moços.wav
Pre-gap length 0:00:00.66
Peak level 93.2 %
Extraction speed 5.0 X
Track quality 100.0 %
Test CRC 0C7237B1
Copy CRC 0C7237B1
Cannot be verified as accurate (confidence 3) [51A4C5DB], AccurateRip returned [8C507971] (AR v2)
Copy OK
Track 4
Filename C:\Users\Administrator\Desktop\FLAC\04 - Nossos momentos.wav
Pre-gap length 0:00:00.73
Peak level 79.3 %
Extraction speed 3.3 X
Track quality 99.9 %
Test CRC 5447DBA7
Copy CRC 5447DBA7
Cannot be verified as accurate (confidence 3) [D87A41EB], AccurateRip returned [BCA7E25A] (AR v2)
Copy OK
Track 5
Filename C:\Users\Administrator\Desktop\FLAC\05 - Estrada do sol.wav
Pre-gap length 0:00:00.73
Peak level 92.0 %
Extraction speed 5.2 X
Track quality 100.0 %
Test CRC D3B9CBD7
Copy CRC D3B9CBD7
Cannot be verified as accurate (confidence 3) [B01B3CCE], AccurateRip returned [0C8DD69B] (AR v2)
Copy OK
Track 6
Filename C:\Users\Administrator\Desktop\FLAC\06 - Primavera.wav
Pre-gap length 0:00:00.68
Peak level 81.4 %
Extraction speed 3.7 X
Track quality 99.9 %
Test CRC 56AC6888
Copy CRC 56AC6888
Cannot be verified as accurate (confidence 3) [8359E79F], AccurateRip returned [78E1B882] (AR v2)
Copy OK
Track 7
Filename C:\Users\Administrator\Desktop\FLAC\07 - Folhetim.wav
Pre-gap length 0:00:00.69
Peak level 92.7 %
Extraction speed 3.6 X
Track quality 99.9 %
Test CRC 97F71272
Copy CRC 97F71272
Cannot be verified as accurate (confidence 3) [643FA7AD], AccurateRip returned [D5B6A990] (AR v2)
Copy OK
Track 8
Filename C:\Users\Administrator\Desktop\FLAC\08 - Qualquer coisa.wav
Pre-gap length 0:00:00.73
Peak level 92.5 %
Extraction speed 6.1 X
Track quality 100.0 %
Test CRC BF562456
Copy CRC BF562456
Cannot be verified as accurate (confidence 3) [CC483111], AccurateRip returned [23139092] (AR v2)
Copy OK
Track 9
Filename C:\Users\Administrator\Desktop\FLAC\09 - Acontece.wav
Pre-gap length 0:00:00.66
Peak level 83.2 %
Extraction speed 6.4 X
Track quality 100.0 %
Test CRC B1783CF6
Copy CRC B1783CF6
Cannot be verified as accurate (confidence 3) [11C0DF1D], AccurateRip returned [823BA5BF] (AR v2)
Copy OK
Track 10
Filename C:\Users\Administrator\Desktop\FLAC\10 - Linda flor.wav
Pre-gap length 0:00:00.66
Peak level 74.7 %
Extraction speed 7.1 X
Track quality 100.0 %
Test CRC A605AC8C
Copy CRC A605AC8C
Cannot be verified as accurate (confidence 3) [BC70B865], AccurateRip returned [89C112D2] (AR v2)
Copy OK
Track 11
Filename C:\Users\Administrator\Desktop\FLAC\11 - Começaria tudo outra vez.wav
Pre-gap length 0:00:00.60
Peak level 96.5 %
Extraction speed 3.9 X
Track quality 99.9 %
Test CRC 07681DC5
Copy CRC 07681DC5
Cannot be verified as accurate (confidence 3) [2B23F588], AccurateRip returned [D3C3D5C6] (AR v2)
Copy OK
Track 12
Filename C:\Users\Administrator\Desktop\FLAC\12 - Ternura antiga.wav
Pre-gap length 0:00:00.76
Peak level 89.4 %
Extraction speed 7.4 X
Track quality 100.0 %
Test CRC 43881567
Copy CRC 43881567
Cannot be verified as accurate (confidence 3) [D0BE1C44], AccurateRip returned [B71C5BBE] (AR v2)
Copy OK
Track 13
Filename C:\Users\Administrator\Desktop\FLAC\13 - Latin lover.wav
Pre-gap length 0:00:00.66
Peak level 91.4 %
Extraction speed 7.9 X
Track quality 100.0 %
Test CRC 29656FCB
Copy CRC 29656FCB
Cannot be verified as accurate (confidence 3) [E3835FD8], AccurateRip returned [62D38B78] (AR v2)
Copy OK
Track 14
Filename C:\Users\Administrator\Desktop\FLAC\14 - Aos nossos filhos.wav
Pre-gap length 0:00:00.69
Peak level 86.1 %
Extraction speed 7.7 X
Track quality 100.0 %
Test CRC 7346BF58
Copy CRC 7346BF58
Cannot be verified as accurate (confidence 3) [08E21336], AccurateRip returned [2A34739C] (AR v2)
Copy OK
Track 15
Filename C:\Users\Administrator\Desktop\FLAC\15 - Alguém como tu.wav
Pre-gap length 0:00:00.66
Peak level 94.3 %
Extraction speed 8.1 X
Track quality 100.0 %
Test CRC 111A52D7
Copy CRC 111A52D7
Cannot be verified as accurate (confidence 3) [7FA519CF], AccurateRip returned [1D859A49] (AR v2)
Copy OK
Track 16
Filename C:\Users\Administrator\Desktop\FLAC\16 - Contrato de separação.wav
Pre-gap length 0:00:00.73
Peak level 92.5 %
Extraction speed 7.9 X
Track quality 100.0 %
Test CRC 16E121C8
Copy CRC 16E121C8
Cannot be verified as accurate (confidence 3) [B3C486D8], AccurateRip returned [67FECFDE] (AR v2)
Copy OK
Track 17
Filename C:\Users\Administrator\Desktop\FLAC\17 - Bom dia.wav
Pre-gap length 0:00:00.73
Peak level 91.0 %
Extraction speed 8.2 X
Track quality 100.0 %
Test CRC 79F92338
Copy CRC 79F92338
Cannot be verified as accurate (confidence 3) [90BEDE50], AccurateRip returned [04C98822] (AR v2)
Copy OK
Track 18
Filename C:\Users\Administrator\Desktop\FLAC\18 - Chove lá fora.wav
Pre-gap length 0:00:00.65
Peak level 92.5 %
Extraction speed 8.5 X
Track quality 100.0 %
Test CRC 4F2E58A5
Copy CRC 4F2E58A5
Cannot be verified as accurate (confidence 3) [DB9B2AE2], AccurateRip returned [F0B9621E] (AR v2)
Copy OK
Track 19
Filename C:\Users\Administrator\Desktop\FLAC\19 - Só louco.wav
Pre-gap length 0:00:00.73
Peak level 92.2 %
Extraction speed 8.3 X
Track quality 100.0 %
Test CRC BA21C781
Copy CRC BA21C781
Cannot be verified as accurate (confidence 3) [4C028B5C], AccurateRip returned [FFA04FFF] (AR v2)
Copy OK
No tracks could be verified as accurate
You may have a different pressing from the one(s) in the database
No errors occurred
End of status report
---- CUETools DB Plugin V2.1.4
[CTDB TOCID: Wf0gvqB3u6x3gfjzscjJZ4v3Ahs-] disk not present in database
Submit result: Wf0gvqB3u6x3gfjzscjJZ4v3Ahs- has been uploaded
==== Log checksum A8BB323DFD8ECCDADD2EA0D28A7AEC988F27A350B99E67EF97C68D634DA96B99 ====
 
Содержание индексной карты (.CUE)
REM GENRE Jazz
REM DATE 1995
REM DISCID 1F0F7113
REM COMMENT "ExactAudioCopy v1.0b4"
PERFORMER "Jane Duboc"
TITLE "Jane Duboc"
FILE "01 - A Flor e o Espinho.wav" WAVE
TRACK 01 AUDIO
TITLE "A Flor e o Espinho"
PERFORMER "Jane Duboc"
PREGAP 00:00:32
INDEX 01 00:00:00
TRACK 02 AUDIO
TITLE "Capim"
PERFORMER "Jane Duboc"
INDEX 00 03:42:11
FILE "02 - Capim.wav" WAVE
INDEX 01 00:00:00
TRACK 03 AUDIO
TITLE "Esses Mocos"
PERFORMER "Jane Duboc"
INDEX 00 02:47:65
FILE "03 - Esses Mocos.wav" WAVE
INDEX 01 00:00:00
TRACK 04 AUDIO
TITLE "Nossos Momentos"
PERFORMER "Jane Duboc"
INDEX 00 04:09:65
FILE "04 - Nossos Momentos.wav" WAVE
INDEX 01 00:00:00
TRACK 05 AUDIO
TITLE "Estrada do Sol"
PERFORMER "Jane Duboc"
INDEX 00 03:09:13
FILE "05 - Estrada do Sol.wav" WAVE
INDEX 01 00:00:00
TRACK 06 AUDIO
TITLE "Primavera"
PERFORMER "Jane Duboc"
INDEX 00 02:43:11
FILE "06 - Primavera.wav" WAVE
INDEX 01 00:00:00
TRACK 07 AUDIO
TITLE "Folhetim"
PERFORMER "Jane Duboc"
INDEX 00 03:49:03
FILE "07 - Folhetim.wav" WAVE
INDEX 01 00:00:00
TRACK 08 AUDIO
TITLE "Qualquer Coisa"
PERFORMER "Jane Duboc"
INDEX 00 03:15:08
FILE "08 - Qualquer Coisa.wav" WAVE
INDEX 01 00:00:00
TRACK 09 AUDIO
TITLE "Acontece"
PERFORMER "Jane Duboc"
INDEX 00 02:48:55
FILE "09 - Acontece.wav" WAVE
INDEX 01 00:00:00
TRACK 10 AUDIO
TITLE "Linda Flor"
PERFORMER "Jane Duboc"
INDEX 00 03:25:45
FILE "10 - Linda Flor.wav" WAVE
INDEX 01 00:00:00
TRACK 11 AUDIO
TITLE "Comecaria Tudo Outra Vez"
PERFORMER "Jane Duboc"
INDEX 00 04:34:12
FILE "11 - Comecaria Tudo Outra Vez.wav" WAVE
INDEX 01 00:00:00
TRACK 12 AUDIO
TITLE "Ternura Antiga"
PERFORMER "Jane Duboc"
INDEX 00 03:17:58
FILE "12 - Ternura Antiga.wav" WAVE
INDEX 01 00:00:00
TRACK 13 AUDIO
TITLE "Latin Lover"
PERFORMER "Jane Duboc"
INDEX 00 03:52:13
FILE "13 - Latin Lover.wav" WAVE
INDEX 01 00:00:00
TRACK 14 AUDIO
TITLE "Aos Nossos Filhos"
PERFORMER "Jane Duboc"
INDEX 00 04:56:40
FILE "14 - Aos Nossos Filhos.wav" WAVE
INDEX 01 00:00:00
TRACK 15 AUDIO
TITLE "Alguem Como Tu"
PERFORMER "Jane Duboc"
INDEX 00 03:07:38
FILE "15 - Alguem Como Tu.wav" WAVE
INDEX 01 00:00:00
TRACK 16 AUDIO
TITLE "Contrato de Separacao"
PERFORMER "Jane Duboc"
INDEX 00 03:44:42
FILE "16 - Contrato de Separacao.wav" WAVE
INDEX 01 00:00:00
TRACK 17 AUDIO
TITLE "Bom Dia"
PERFORMER "Jane Duboc"
INDEX 00 02:50:13
FILE "17 - Bom Dia.wav" WAVE
INDEX 01 00:00:00
TRACK 18 AUDIO
TITLE "Chove la Fora"
PERFORMER "Jane Duboc"
INDEX 00 03:04:26
FILE "18 - Chove la Fora.wav" WAVE
INDEX 01 00:00:00
TRACK 19 AUDIO
TITLE "So Louco"
PERFORMER "Jane Duboc"
INDEX 00 03:37:45
FILE "19 - So Louco.wav" WAVE
INDEX 01 00:00:00
 
Отчет CUETools
[CUETools log; Date: 07.07.2015 18:01:42; Version: 2.1.5]
Pregap length 00:00:32.
[CTDB TOCID: Wf0gvqB3u6x3gfjzscjJZ4v3Ahs-] found.
Track | CTDB Status
1 | (1/1) Accurately ripped
2 | (1/1) Accurately ripped
3 | (1/1) Accurately ripped
4 | (1/1) Accurately ripped
5 | (1/1) Accurately ripped
6 | (1/1) Accurately ripped
7 | (1/1) Accurately ripped
8 | (1/1) Accurately ripped
9 | (1/1) Accurately ripped
10 | (1/1) Accurately ripped
11 | (1/1) Accurately ripped
12 | (1/1) Accurately ripped
13 | (1/1) Accurately ripped
14 | (1/1) Accurately ripped
15 | (1/1) Accurately ripped
16 | (1/1) Accurately ripped
17 | (1/1) Accurately ripped
18 | (1/1) Accurately ripped
19 | (1/1) Accurately ripped
[AccurateRip ID: 002d65f9-027dff6e-1f0f7113] found.
Track [ CRC | V2 ] Status
01 [365ae67e|be4289fd] (0+0/3) No match
02 [ff52e8d1|3afab4de] (0+0/3) No match
03 [428f7a65|51a4c5db] (0+0/3) No match
04 [07e6ce6a|d87a41eb] (0+0/3) No match
05 [294e2a27|b01b3cce] (0+0/3) No match
06 [cb650f76|8359e79f] (0+0/3) No match
07 [c97e6f3c|643fa7ad] (0+0/3) No match
08 [6e990c1e|cc483111] (0+0/3) No match
09 [90c0d59f|11c0df1d] (0+0/3) No match
10 [764de22e|bc70b865] (0+0/3) No match
11 [8ceacaa2|2b23f588] (0+0/3) No match
12 [2938cbba|d0be1c44] (0+0/3) No match
13 [17197d94|e3835fd8] (0+0/3) No match
14 [1e2e8fdc|08e21336] (0+0/3) No match
15 [eaad934d|7fa519cf] (0+0/3) No match
16 [adefcf72|b3c486d8] (0+0/3) No match
17 [3bb40e06|90bede50] (0+0/3) No match
18 [74345d96|db9b2ae2] (0+0/3) No match
19 [61b7a2cf|4c028b5c] (0+0/3) No match
Offsetted by 884:
01 [e2ae8f22] (3/3) Accurately ripped
02 [22f70a7d] (3/3) Accurately ripped
03 [8c507971] (3/3) Accurately ripped
04 [bca7e25a] (3/3) Accurately ripped
05 [0c8dd69b] (3/3) Accurately ripped
06 [78e1b882] (3/3) Accurately ripped
07 [d5b6a990] (3/3) Accurately ripped
08 [23139092] (3/3) Accurately ripped
09 [823ba5bf] (3/3) Accurately ripped
10 [89c112d2] (3/3) Accurately ripped
11 [d3c3d5c6] (3/3) Accurately ripped
12 [b71c5bbe] (3/3) Accurately ripped
13 [62d38b78] (3/3) Accurately ripped
14 [2a34739c] (3/3) Accurately ripped
15 [1d859a49] (3/3) Accurately ripped
16 [67fecfde] (3/3) Accurately ripped
17 [04c98822] (3/3) Accurately ripped
18 [f0b9621e] (3/3) Accurately ripped
19 [ffa04fff] (3/3) Accurately ripped
Track Peak [ CRC32 ] [W/O NULL] [ LOG ]
-- 96,5 [10C0B73A] [88DEAA06]
01 90,6 [9AB3B4C6] [E3D2EA16] CRC32
02 92,0 [D5973128] [47DD01BE] CRC32
03 93,2 [0C7237B1] [81974583] CRC32
04 79,3 [5447DBA7] [55B987AF] CRC32
05 92,0 [D3B9CBD7] [7383886D] CRC32
06 81,4 [56AC6888] [A1BC521D] CRC32
07 92,7 [97F71272] [EFB2B8F3] CRC32
08 92,5 [BF562456] [AD765D2E] CRC32
09 83,2 [B1783CF6] [8C7742CC] CRC32
10 74,7 [A605AC8C] [727E0F7B] CRC32
11 96,5 [07681DC5] [3C814331] CRC32
12 89,4 [43881567] [53D10C34] CRC32
13 91,4 [29656FCB] [9F82607A] CRC32
14 86,1 [7346BF58] [3743778A] CRC32
15 94,3 [111A52D7] [64EAE277] CRC32
16 92,5 [16E121C8] [2EE4E974] CRC32
17 91,0 [79F92338] [23D6CBBB] CRC32
18 92,5 [4F2E58A5] [12D9F1E1] CRC32
19 92,2 [BA21C781] [8EFAEEBF] CRC32
19:16
293
Нет комментариев. Ваш будет первым!