Поиск

(Brazilian Jazz) Tania Maria — Forbidden Colors — 1988, FLAC (tracks+.cue) lossless

Tania Maria — Forbidden Colors
Жанр: Brazilian Jazz
Страна-производитель диска: USA
Год издания диска: 1988
Лейбл: Capitol
Номер по каталогу: CDP 7 90066 2
Аудио кодек: FLAC (*.flac)
Тип рипа: tracks+.cue
Битрейт аудио: lossless
Продолжительность: 45:04
Риппер: tiburon
Сканы есть
Треклист:
01. It's Only Love (5:09)
02. Choices (5:11)
03. What Will You Give Me For My Love (4:46)
04. O Bom E (5:00)
05. Chuleta (4:28)
06. Please Don't Stay (5:38)
07. Am I Too Late (3:30)
08. Forbidden Colors (5:46)
09. Brazilian Eyes (5:37)
 
Лог создания рипа
Exact Audio Copy V1.0 beta 1 from 15. November 2010
EAC extraction logfile from 12. February 2011, 14:45
Tania Maria / Forbidden Colors
Used drive : HL-DT-STDVDRAM GH20NS10 Adapter: 2 ID: 0
Read mode : Secure
Utilize accurate stream : Yes
Defeat audio cache : Yes
Make use of C2 pointers : No
Read offset correction : 667
Overread into Lead-In and Lead-Out : No
Fill up missing offset samples with silence : Yes
Delete leading and trailing silent blocks : No
Null samples used in CRC calculations : Yes
Used interface : Native Win32 interface for Win NT & 2000
Gap handling : Appended to previous track
Used output format : User Defined Encoder
Selected bitrate : 1024 kBit/s
Quality : High
Add ID3 tag : No
Command line compressor : C:\Program Files\Exact Audio Copy\Flac\flac.exe
Additional command line options : -8 -V -T "ARTIST=%a" -T "TITLE=%t" -T "ALBUM=%g" -T "DATE=%y" -T "TRACKNUMBER=%n" -T "TOTALTRACKS=%x" -T "GENRE=%m" -T "ALBUMARTIST=%v" -T "ALBUM ARTIST=%v" -T "COMMENT=EAC Secure Mode, Test & Copy, AccurateRip, FLAC -8" %s
TOC of the extracted CD
Track | Start | Length | Start sector | End sector
---------------------------------------------------------
1 | 0:00.32 | 5:08.53 | 32 | 23184
2 | 5:09.10 | 5:11.20 | 23185 | 46529
3 | 10:20.30 | 4:46.05 | 46530 | 67984
4 | 15:06.35 | 4:59.55 | 67985 | 90464
5 | 20:06.15 | 4:27.72 | 90465 | 110561
6 | 24:34.12 | 5:38.30 | 110562 | 135941
7 | 30:12.42 | 3:29.55 | 135942 | 151671
8 | 33:42.22 | 5:45.60 | 151672 | 177606
9 | 39:28.07 | 5:36.60 | 177607 | 202866
Track 1
Filename G:\Tania Maria - Forbidden Colors (1988) {Capitol CDP 7900662}\01 - It's Only Love.wav
Pre-gap length 0:00:02.32
Peak level 88.2 %
Extraction speed 3.2 X
Track quality 100.0 %
Test CRC 2160645C
Copy CRC 2160645C
Accurately ripped (confidence 4) [56E9B200]
Copy OK
Track 2
Filename G:\Tania Maria - Forbidden Colors (1988) {Capitol CDP 7900662}\02 - Choices.wav
Pre-gap length 0:00:04.05
Peak level 82.3 %
Extraction speed 3.3 X
Track quality 100.0 %
Test CRC 2BA12E42
Copy CRC 2BA12E42
Accurately ripped (confidence 4) [A2B22AAB]
Copy OK
Track 3
Filename G:\Tania Maria - Forbidden Colors (1988) {Capitol CDP 7900662}\03 - What Will You Give Me for My Love.wav
Pre-gap length 0:00:01.55
Peak level 68.9 %
Extraction speed 3.4 X
Track quality 100.0 %
Test CRC 4794D36C
Copy CRC 4794D36C
Accurately ripped (confidence 4) [33928EB5]
Copy OK
Track 4
Filename G:\Tania Maria - Forbidden Colors (1988) {Capitol CDP 7900662}\04 - O Bom E.wav
Pre-gap length 0:00:03.58
Peak level 94.1 %
Extraction speed 2.7 X
Track quality 100.0 %
Test CRC 50C1C966
Copy CRC 50C1C966
Accurately ripped (confidence 4) [5A25AEFE]
Copy OK
Track 5
Filename G:\Tania Maria - Forbidden Colors (1988) {Capitol CDP 7900662}\05 - Chuleta.wav
Pre-gap length 0:00:00.25
Peak level 83.1 %
Extraction speed 3.9 X
Track quality 99.9 %
Test CRC 41BD7BAB
Copy CRC 41BD7BAB
Accurately ripped (confidence 4) [3C3FC4BD]
Copy OK
Track 6
Filename G:\Tania Maria - Forbidden Colors (1988) {Capitol CDP 7900662}\06 - Please Don't Stay.wav
Pre-gap length 0:00:02.25
Peak level 82.9 %
Extraction speed 5.5 X
Track quality 100.0 %
Test CRC 3B76DCC3
Copy CRC 3B76DCC3
Accurately ripped (confidence 4) [156167FD]
Copy OK
Track 7
Filename G:\Tania Maria - Forbidden Colors (1988) {Capitol CDP 7900662}\07 - Am I Too Late.wav
Pre-gap length 0:00:02.47
Peak level 64.0 %
Extraction speed 4.1 X
Track quality 100.0 %
Test CRC 6D0DF4D9
Copy CRC 6D0DF4D9
Accurately ripped (confidence 4) [DB61332A]
Copy OK
Track 8
Filename G:\Tania Maria - Forbidden Colors (1988) {Capitol CDP 7900662}\08 - Forbidden Colors.wav
Pre-gap length 0:00:02.65
Peak level 84.7 %
Extraction speed 4.0 X
Track quality 100.0 %
Test CRC 6A6D5BAB
Copy CRC 6A6D5BAB
Accurately ripped (confidence 4) [B9244AD4]
Copy OK
Track 9
Filename G:\Tania Maria - Forbidden Colors (1988) {Capitol CDP 7900662}\09 - Brazilian Eyes.wav
Pre-gap length 0:00:01.10
Peak level 77.3 %
Extraction speed 6.9 X
Track quality 100.0 %
Test CRC C5277AF5
Copy CRC C5277AF5
Accurately ripped (confidence 4) [84F8D464]
Copy OK
All tracks accurately ripped
No errors occurred
End of status report
==== Log checksum 1CAD4CB92B0178E1AEF672BE6461E621214EAE41D7116435E1898831ED3D6783 ====
 
Содержание индексной карты (.CUE)
REM GENRE Jazz
REM DATE 1988
REM DISCID 610A9009
REM COMMENT "ExactAudioCopy v1.0b1"
PERFORMER "Tania Maria"
TITLE "Forbidden Colors"
FILE "01 - It's Only Love.wav" WAVE
TRACK 01 AUDIO
TITLE "It's Only Love"
PERFORMER "Tania Maria"
PREGAP 00:00:32
INDEX 01 00:00:00
TRACK 02 AUDIO
TITLE "Choices"
PERFORMER "Tania Maria"
INDEX 00 05:04:48
FILE "02 - Choices.wav" WAVE
INDEX 01 00:00:00
TRACK 03 AUDIO
TITLE "What Will You Give Me for My Love"
PERFORMER "Tania Maria"
INDEX 00 05:09:40
FILE "03 - What Will You Give Me for My Love.wav" WAVE
INDEX 01 00:00:00
TRACK 04 AUDIO
TITLE "O Bom E"
PERFORMER "Tania Maria"
INDEX 00 04:42:22
FILE "04 - O Bom E.wav" WAVE
INDEX 01 00:00:00
TRACK 05 AUDIO
TITLE "Chuleta"
PERFORMER "Tania Maria"
INDEX 00 04:59:30
FILE "05 - Chuleta.wav" WAVE
INDEX 01 00:00:00
TRACK 06 AUDIO
TITLE "Please Don't Stay"
PERFORMER "Tania Maria"
INDEX 00 04:25:47
FILE "06 - Please Don't Stay.wav" WAVE
INDEX 01 00:00:00
TRACK 07 AUDIO
TITLE "Am I Too Late"
PERFORMER "Tania Maria"
INDEX 00 05:35:58
FILE "07 - Am I Too Late.wav" WAVE
INDEX 01 00:00:00
TRACK 08 AUDIO
TITLE "Forbidden Colors"
PERFORMER "Tania Maria"
INDEX 00 03:26:65
FILE "08 - Forbidden Colors.wav" WAVE
INDEX 01 00:00:00
TRACK 09 AUDIO
TITLE "Brazilian Eyes"
PERFORMER "Tania Maria"
INDEX 00 05:44:50
FILE "09 - Brazilian Eyes.wav" WAVE
INDEX 01 00:00:00
 
Состав
Tania Maria - vocals,keyboards
Mark Egan - bass
Airto Moreira - percussion
Buddy Williams - drums
Steve Thornton - percussion
Ted Lo - synthesizer
Steve Gadd - drums
Anthony Jackson - bass
Dan Carillo - guitar
Dick Oatts - sax
Kim Planfield - drums
Leo Traversa - bass
Produced by Eric Kressmann & Tania Maria
20:30
269
Нет комментариев. Ваш будет первым!