Поиск

(Brazilian Jazz) Sebastiao Tapajos - Solos da Amazonia - 2000, FLAC (tracks+.cue), lossless

(Brazilian Jazz) Sebastiao Tapajos - Solos da Amazonia - 2000, FLAC (tracks+.cue), lossless
Треклист:
Sebastiao Tapajos - Solos da Amazonia
Жанр: Brazilian Jazz
Страна-производитель диска: Бразилия
Год издания: 2000
Номер по каталогу: CD-STM005
Аудиокодек: FLAC (*.flac)
Тип рипа: tracks+.cue
Битрейт аудио: lossless
Продолжительность: 47:17
Источник (релизер): Suppis (what)
Наличие сканов в содержимом раздачи: нет
Треклист:
01. Encontro com as aguas (4:48)
02. Guajara (2:59)
03. Catraias (4:59)
04. Bom Para (3:16)
05. Tapari (4:31)
06. Varzeas (3:52)
07. Remanso (4:05)
08. Correnteza (4:22)
09. Aldeia (2:45)
10. Arapiuns (4:07)
11. Floresta (3:24)
12. Para os curumins (4:09)
 
Лог создания рипа
Exact Audio Copy V1.0 beta 3 from 29. August 2011
EAC extraction logfile from 26. December 2011, 17:03
Sebastião Tapajós / Solos da Amazônia
Used drive : HL-DT-STDVDRAM GSA-T30N Adapter: 0 ID: 1
Read mode : Secure
Utilize accurate stream : Yes
Defeat audio cache : Yes
Make use of C2 pointers : No
Read offset correction : 667
Overread into Lead-In and Lead-Out : No
Fill up missing offset samples with silence : Yes
Delete leading and trailing silent blocks : No
Null samples used in CRC calculations : Yes
Used interface : Native Win32 interface for Win NT & 2000
Gap handling : Appended to previous track
Used output format : User Defined Encoder
Selected bitrate : 1024 kBit/s
Quality : High
Add ID3 tag : No
Command line compressor : C:\Program Files\Exact Audio Copy\Flac\flac.exe
Additional command line options : -8 -V -T "ARTIST=%artist%" -T "TITLE=%title%" -T "ALBUM=%albumtitle%" -T "DATE=%year%" -T "TRACKNUMBER=%tracknr%" -T "GENRE=%genre%" -T "PERFORMER=%albuminterpret%" -T "COMPOSER=%composer%" %haslyrics%--tag-from-file=LYRICS="%lyricsfile%"%haslyrics% -T "ALBUMARTIST=%albumartist%" -T "DISCNUMBER=%cdnumber%" -T "TOTALDISCS=%totalcds%" -T "TOTALTRACKS=%numtracks%" -T "COMMENT=%comment%" %source% -o %dest%
TOC of the extracted CD
Track | Start | Length | Start sector | End sector
---------------------------------------------------------
1 | 0:00.00 | 4:47.64 | 0 | 21588
2 | 4:47.64 | 2:58.39 | 21589 | 34977
3 | 7:46.28 | 4:58.50 | 34978 | 57377
4 | 12:45.03 | 3:16.02 | 57378 | 72079
5 | 16:01.05 | 4:30.70 | 72080 | 92399
6 | 20:32.00 | 3:52.13 | 92400 | 109812
7 | 24:24.13 | 4:05.01 | 109813 | 128188
8 | 28:29.14 | 4:22.18 | 128189 | 147856
9 | 32:51.32 | 2:44.44 | 147857 | 160200
10 | 35:36.01 | 4:06.65 | 160201 | 178715
11 | 39:42.66 | 3:24.37 | 178716 | 194052
12 | 43:07.28 | 4:08.52 | 194053 | 212704
Track 1
Filename C:\Documents and Settings\Käyttäjä\Omat tiedostot\Omat musiikkitiedostot\Sebastião Tapajós - Solos da Amazônia (2000) [FLAC]\01 - Encontro com as águas.wav
Pre-gap length 0:00:02.00
Peak level 96.6 %
Extraction speed 2.2 X
Track quality 99.9 %
Test CRC C1FE1189
Copy CRC C1FE1189
Track not present in AccurateRip database
Copy OK
Track 2
Filename C:\Documents and Settings\Käyttäjä\Omat tiedostot\Omat musiikkitiedostot\Sebastião Tapajós - Solos da Amazônia (2000) [FLAC]\02 - Guajará.wav
Pre-gap length 0:00:01.30
Peak level 96.6 %
Extraction speed 2.4 X
Track quality 100.0 %
Test CRC FAE49C63
Copy CRC FAE49C63
Track not present in AccurateRip database
Copy OK
Track 3
Filename C:\Documents and Settings\Käyttäjä\Omat tiedostot\Omat musiikkitiedostot\Sebastião Tapajós - Solos da Amazônia (2000) [FLAC]\03 - Catraias.wav
Pre-gap length 0:00:02.01
Peak level 96.6 %
Extraction speed 2.9 X
Track quality 100.0 %
Test CRC 421908AD
Copy CRC 421908AD
Track not present in AccurateRip database
Copy OK
Track 4
Filename C:\Documents and Settings\Käyttäjä\Omat tiedostot\Omat musiikkitiedostot\Sebastião Tapajós - Solos da Amazônia (2000) [FLAC]\04 - Bom Pará.wav
Pre-gap length 0:00:01.73
Peak level 96.6 %
Extraction speed 2.9 X
Track quality 100.0 %
Test CRC 5CA56282
Copy CRC 5CA56282
Track not present in AccurateRip database
Copy OK
Track 5
Filename C:\Documents and Settings\Käyttäjä\Omat tiedostot\Omat musiikkitiedostot\Sebastião Tapajós - Solos da Amazônia (2000) [FLAC]\05 - Tapari.wav
Pre-gap length 0:00:01.25
Peak level 96.6 %
Extraction speed 2.9 X
Track quality 99.9 %
Test CRC 86F3CD82
Copy CRC 86F3CD82
Track not present in AccurateRip database
Copy OK
Track 6
Filename C:\Documents and Settings\Käyttäjä\Omat tiedostot\Omat musiikkitiedostot\Sebastião Tapajós - Solos da Amazônia (2000) [FLAC]\06 - Varzeas.wav
Pre-gap length 0:00:01.06
Peak level 96.6 %
Extraction speed 3.4 X
Track quality 100.0 %
Test CRC D4B85E79
Copy CRC D4B85E79
Track not present in AccurateRip database
Copy OK
Track 7
Filename C:\Documents and Settings\Käyttäjä\Omat tiedostot\Omat musiikkitiedostot\Sebastião Tapajós - Solos da Amazônia (2000) [FLAC]\07 - Remanso.wav
Pre-gap length 0:00:02.00
Peak level 96.6 %
Extraction speed 3.2 X
Track quality 99.9 %
Test CRC DB5C381B
Copy CRC DB5C381B
Track not present in AccurateRip database
Copy OK
Track 8
Filename C:\Documents and Settings\Käyttäjä\Omat tiedostot\Omat musiikkitiedostot\Sebastião Tapajós - Solos da Amazônia (2000) [FLAC]\08 - Correnteza.wav
Pre-gap length 0:00:01.97
Peak level 96.6 %
Extraction speed 3.3 X
Track quality 99.9 %
Test CRC FF6FB73B
Copy CRC FF6FB73B
Track not present in AccurateRip database
Copy OK
Track 9
Filename C:\Documents and Settings\Käyttäjä\Omat tiedostot\Omat musiikkitiedostot\Sebastião Tapajós - Solos da Amazônia (2000) [FLAC]\09 - Aldeia.wav
Pre-gap length 0:00:02.01
Peak level 96.6 %
Extraction speed 3.6 X
Track quality 100.0 %
Test CRC 02A21E51
Copy CRC 02A21E51
Track not present in AccurateRip database
Copy OK
Track 10
Filename C:\Documents and Settings\Käyttäjä\Omat tiedostot\Omat musiikkitiedostot\Sebastião Tapajós - Solos da Amazônia (2000) [FLAC]\10 - Arapiuns.wav
Pre-gap length 0:00:02.00
Peak level 96.6 %
Extraction speed 3.8 X
Track quality 100.0 %
Test CRC 67FF1A14
Copy CRC 67FF1A14
Track not present in AccurateRip database
Copy OK
Track 11
Filename C:\Documents and Settings\Käyttäjä\Omat tiedostot\Omat musiikkitiedostot\Sebastião Tapajós - Solos da Amazônia (2000) [FLAC]\11 - Floresta.wav
Pre-gap length 0:00:01.94
Peak level 96.6 %
Extraction speed 3.5 X
Track quality 99.9 %
Test CRC 011E94CA
Copy CRC 011E94CA
Track not present in AccurateRip database
Copy OK
Track 12
Filename C:\Documents and Settings\Käyttäjä\Omat tiedostot\Omat musiikkitiedostot\Sebastião Tapajós - Solos da Amazônia (2000) [FLAC]\12 - Para os curumins.wav
Pre-gap length 0:00:02.04
Peak level 96.6 %
Extraction speed 3.8 X
Track quality 99.9 %
Test CRC 10857C1E
Copy CRC 10857C1E
Track not present in AccurateRip database
Copy OK
None of the tracks are present in the AccurateRip database
No errors occurred
End of status report
---- CUETools DB Plugin V2.1.3
[CTDB TOCID: A3YG7jNTWbg5ofSObIzh0GNXC0o-] disk not present in database, Submit result: A3YG7jNTWbg5ofSObIzh0GNXC0o- has been uploaded
==== Log checksum 43EEEDCEF8249EB2DB693DFD06C5D382FA77634DDBCE39731DD547BD0293D8CC ====
 
Содержание индексной карты (.CUE)
REM GENRE Jazz
REM DATE 2000
REM DISCID BD0B140C
REM COMMENT "ExactAudioCopy v1.0b3"
PERFORMER "Sebastiao Tapajos"
TITLE "Solos da Amazonia"
FILE "01 - Encontro com as aguas.wav" WAVE
TRACK 01 AUDIO
TITLE "Encontro com as aguas"
PERFORMER "Sebastiao Tapajos"
INDEX 01 00:00:00
TRACK 02 AUDIO
TITLE "Guajara"
PERFORMER "Sebastiao Tapajos"
INDEX 00 04:46:41
FILE "02 - Guajara.wav" WAVE
INDEX 01 00:00:00
TRACK 03 AUDIO
TITLE "Catraias"
PERFORMER "Sebastiao Tapajos"
INDEX 00 02:56:38
FILE "03 - Catraias.wav" WAVE
INDEX 01 00:00:00
TRACK 04 AUDIO
TITLE "Bom Para"
PERFORMER "Sebastiao Tapajos"
INDEX 00 04:56:70
FILE "04 - Bom Para.wav" WAVE
INDEX 01 00:00:00
TRACK 05 AUDIO
TITLE "Tapari"
PERFORMER "Sebastiao Tapajos"
INDEX 00 03:14:58
FILE "05 - Tapari.wav" WAVE
INDEX 01 00:00:00
TRACK 06 AUDIO
TITLE "Varzeas"
PERFORMER "Sebastiao Tapajos"
INDEX 00 04:29:65
FILE "06 - Varzeas.wav" WAVE
INDEX 01 00:00:00
TRACK 07 AUDIO
TITLE "Remanso"
PERFORMER "Sebastiao Tapajos"
INDEX 00 03:50:13
FILE "07 - Remanso.wav" WAVE
INDEX 01 00:00:00
TRACK 08 AUDIO
TITLE "Correnteza"
PERFORMER "Sebastiao Tapajos"
INDEX 00 04:03:03
FILE "08 - Correnteza.wav" WAVE
INDEX 01 00:00:00
TRACK 09 AUDIO
TITLE "Aldeia"
PERFORMER "Sebastiao Tapajos"
INDEX 00 04:20:17
FILE "09 - Aldeia.wav" WAVE
INDEX 01 00:00:00
TRACK 10 AUDIO
TITLE "Arapiuns"
PERFORMER "Sebastiao Tapajos"
INDEX 00 02:42:44
FILE "10 - Arapiuns.wav" WAVE
INDEX 01 00:00:00
TRACK 11 AUDIO
TITLE "Floresta"
PERFORMER "Sebastiao Tapajos"
INDEX 00 04:04:69
FILE "11 - Floresta.wav" WAVE
INDEX 01 00:00:00
TRACK 12 AUDIO
TITLE "Para os curumins"
PERFORMER "Sebastiao Tapajos"
INDEX 00 03:22:34
FILE "12 - Para os curumins.wav" WAVE
INDEX 01 00:00:00
 
Отчет CUETools
[CUETools log; Date: 02.05.2013 21:57:41; Version: 2.1.4]
[CTDB TOCID: A3YG7jNTWbg5ofSObIzh0GNXC0o-] found.
Track | CTDB Status
1 | (1/1) Accurately ripped
2 | (1/1) Accurately ripped
3 | (1/1) Accurately ripped
4 | (1/1) Accurately ripped
5 | (1/1) Accurately ripped
6 | (1/1) Accurately ripped
7 | (1/1) Accurately ripped
8 | (1/1) Accurately ripped
9 | (1/1) Accurately ripped
10 | (1/1) Accurately ripped
11 | (1/1) Accurately ripped
12 | (1/1) Accurately ripped
[AccurateRip ID: 001583a7-00c791f4-bd0b140c] disk not present in database.
Track Peak [ CRC32 ] [W/O NULL] [ LOG ]
-- 96,6 [F2DD2A39] [C0B87A58]
01 96,6 [C1FE1189] [7A2D4809] CRC32
02 96,6 [FAE49C63] [11749DE1] CRC32
03 96,6 [421908AD] [D806056C] CRC32
04 96,6 [5CA56282] [364F4D7E] CRC32
05 96,6 [86F3CD82] [397D6581] CRC32
06 96,6 [D4B85E79] [0FD37057] CRC32
07 96,6 [DB5C381B] [C845ED03] CRC32
08 96,6 [FF6FB73B] [46B034CD] CRC32
09 96,6 [02A21E51] [86C84D9E] CRC32
10 96,6 [67FF1A14] [E652414C] CRC32
11 96,6 [011E94CA] [028299BC] CRC32
12 96,6 [10857C1E] [A5866D90] CRC32
10:37
252
Нет комментариев. Ваш будет первым!