Поиск

(Brazilian Jazz, Samba, Vocal Jazz) Leny Andrade - Estamos ai - 1965 (2003), FLAC (tracks+.cue), lossless

(Brazilian Jazz, Samba, Vocal Jazz) Leny Andrade - Estamos ai - 1965 (2003), FLAC (tracks+.cue), lossless
Треклист:
Leny Andrade - Estamos ai
Жанр: Brazilian Jazz, Samba, Vocal Jazz
Страна-производитель диска: Бразилия
Год издания: 1965 (2003)
Издатель (лейбл): Odeon/100 Anos/EMI
Номер по каталогу: 541537-2
Аудиокодек: FLAC (*.flac)
Тип рипа: tracks+.cue
Битрейт аудио: lossless
Продолжительность: 30:42
Источник (релизер): tobb3 (what)
Наличие сканов в содержимом раздачи: да
Треклист:
01. Estamos ai (Werneck-Einhorn-Ferreira) - 3:06
02. A resposta (Valle-Valle) - 2:48
03. Deixa o morro cantar (Madi)/O morro nao tem vez (Jobim-De Moraes)/Opiniao (Keti)/Enquanto a tristeza nao vem (Ricardo)/Reza (Lobo-Guerra) - 2:14
04. Cliche (Einhorn-Ferreira) - 1:28
05. Olhando o mar (Soares-Verocai) - 2:32
06. Banzo (Olyntho-Valle) - 2:52
07. Samba de rei (Pingarilho-De Vasconcellos) - 2:29
08. Tema feliz (Werneck-Ferreira) - 2:05
09. Razao de viver (Valle-Deodato) - 2:58
10. Esqueca nao (Madi) - 2:58
11. Samba em Paris (Nelsinho) - 1:55
12. Coisa nuvem (Nascimento-Freire) - 3:17
Состав:
Leny Andrade - vocals
Eumir Deodato - arrangements, piano
Meirelles - saxophone, flute
Geraldo Vespar, Durval Ferreira - guitar
and other great musicians
 
Лог создания рипа
Exact Audio Copy V0.99 prebeta 4 from 23. January 2008
EAC extraction logfile from 7. July 2009, 15:42
Leny Andrade / Estamos ai
Used drive : TSSTcorpCDDVDW SE-S084B Adapter: 3 ID: 0
Read mode : Secure
Utilize accurate stream : Yes
Defeat audio cache : Yes
Make use of C2 pointers : No
Read offset correction : 6
Overread into Lead-In and Lead-Out : No
Fill up missing offset samples with silence : Yes
Delete leading and trailing silent blocks : No
Null samples used in CRC calculations : Yes
Used interface : Installed external ASPI interface
Gap handling : Appended to previous track
Used output format : Internal WAV Routines
Sample format : 44.100 Hz; 16 Bit; Stereo
TOC of the extracted CD
Track | Start | Length | Start sector | End sector
---------------------------------------------------------
1 | 0:00.00 | 3:06.12 | 0 | 13961
2 | 3:06.12 | 2:48.28 | 13962 | 26589
3 | 5:54.40 | 2:13.62 | 26590 | 36626
4 | 8:08.27 | 1:27.70 | 36627 | 43221
5 | 9:36.22 | 2:31.45 | 43222 | 54591
6 | 12:07.67 | 2:51.60 | 54592 | 67476
7 | 14:59.52 | 2:29.28 | 67477 | 78679
8 | 17:29.05 | 2:04.57 | 78680 | 88036
9 | 19:33.62 | 2:58.05 | 88037 | 101391
10 | 22:31.67 | 2:58.03 | 101392 | 114744
11 | 25:29.70 | 1:55.12 | 114745 | 123381
12 | 27:25.07 | 3:16.48 | 123382 | 138129
Track 1
Filename C:\01 - Estamos Ai.wav
Pre-gap length 0:00:02.00
Peak level 99.7 %
Track quality 100.0 %
Test CRC 89758795
Copy CRC 89758795
Track not present in AccurateRip database
Copy OK
Track 2
Filename C:\02 - A Resposta.wav
Peak level 98.1 %
Track quality 100.0 %
Test CRC 3ECC1E4B
Copy CRC 3ECC1E4B
Track not present in AccurateRip database
Copy OK
Track 3
Filename C:\03 - Deixa o morro cantar , Deixa o Morro Cantar , O Morro Nao Tem Vez , Opiniao , Enquanto a Tristeza Nao Vem , Reza.wav
Peak level 96.7 %
Track quality 99.9 %
Test CRC E0D8ADB6
Copy CRC E0D8ADB6
Track not present in AccurateRip database
Copy OK
Track 4
Filename C:\04 - Cliche.wav
Peak level 97.0 %
Track quality 100.0 %
Test CRC D3070000
Copy CRC D3070000
Track not present in AccurateRip database
Copy OK
Track 5
Filename C:\05 - Olhando o mar.wav
Peak level 100.0 %
Track quality 100.0 %
Test CRC 6E05B859
Copy CRC 6E05B859
Track not present in AccurateRip database
Copy OK
Track 6
Filename C:\06 - Banzo.wav
Peak level 100.0 %
Track quality 100.0 %
Test CRC 2A5C1231
Copy CRC 2A5C1231
Track not present in AccurateRip database
Copy OK
Track 7
Filename C:\07 - Samba de Rei.wav
Peak level 99.5 %
Track quality 100.0 %
Test CRC 77DE6F45
Copy CRC 77DE6F45
Track not present in AccurateRip database
Copy OK
Track 8
Filename C:\08 - Tema Feliz.wav
Peak level 96.1 %
Track quality 100.0 %
Test CRC 64D44055
Copy CRC 64D44055
Track not present in AccurateRip database
Copy OK
Track 9
Filename C:\09 - Razao de Viver.wav
Peak level 93.3 %
Track quality 100.0 %
Test CRC FE56790D
Copy CRC FE56790D
Track not present in AccurateRip database
Copy OK
Track 10
Filename C:\10 - Esqueca Nao.wav
Peak level 94.8 %
Track quality 100.0 %
Test CRC 6CA2FB62
Copy CRC 6CA2FB62
Track not present in AccurateRip database
Copy OK
Track 11
Filename C:\11 - Samba em Paris.wav
Peak level 84.1 %
Track quality 100.0 %
Test CRC CF17AD9F
Copy CRC CF17AD9F
Track not present in AccurateRip database
Copy OK
Track 12
Filename C:\12 - Coisa nenhuma.wav
Peak level 93.9 %
Track quality 100.0 %
Test CRC 5521D385
Copy CRC 5521D385
Track not present in AccurateRip database
Copy OK
None of the tracks are present in the AccurateRip database
No errors occurred
End of status report
 
Содержание индексной карты (.CUE)
REM GENRE Jazz
REM DATE 1965
REM DISCID 9B07310C
REM COMMENT "ExactAudioCopy v0.99pb4"
PERFORMER "Leny Andrade"
TITLE "Estamos ai"
FILE "01 - Estamos ai.wav" WAVE
TRACK 01 AUDIO
TITLE "Estamos ai"
PERFORMER "Leny Andrade"
INDEX 01 00:00:00
FILE "02 - A resposta.wav" WAVE
TRACK 02 AUDIO
TITLE "A resposta"
PERFORMER "Leny Andrade"
INDEX 01 00:00:00
FILE "03 - Deixa o morro cantar-O morro nao tem vez-Opiniao-Enquanto a tristeza nao vem-Reza.wav" WAVE
TRACK 03 AUDIO
TITLE "Deixa o morro cantar/O morro nao tem vez/Opiniao/Enquanto a tristeza nao vem/Reza"
PERFORMER "Leny Andrade"
INDEX 01 00:00:00
FILE "04 - Cliche.wav" WAVE
TRACK 04 AUDIO
TITLE "Cliche"
PERFORMER "Leny Andrade"
INDEX 01 00:00:00
FILE "05 - Olhando o mar.wav" WAVE
TRACK 05 AUDIO
TITLE "Olhando o mar"
PERFORMER "Leny Andrade"
INDEX 01 00:00:00
FILE "06 - Banzo.wav" WAVE
TRACK 06 AUDIO
TITLE "Banzo"
PERFORMER "Leny Andrade"
INDEX 01 00:00:00
FILE "07 - Samba de rei.wav" WAVE
TRACK 07 AUDIO
TITLE "Samba de rei"
PERFORMER "Leny Andrade"
INDEX 01 00:00:00
FILE "08 - Tema feliz.wav" WAVE
TRACK 08 AUDIO
TITLE "Tema feliz"
PERFORMER "Leny Andrade"
INDEX 01 00:00:00
FILE "09 - Razao de viver.wav" WAVE
TRACK 09 AUDIO
TITLE "Razao de viver"
PERFORMER "Leny Andrade"
INDEX 01 00:00:00
FILE "10 - Esqueca nao.wav" WAVE
TRACK 10 AUDIO
TITLE "Esqueca nao"
PERFORMER "Leny Andrade"
INDEX 01 00:00:00
FILE "11 - Samba em Paris.wav" WAVE
TRACK 11 AUDIO
TITLE "Samba em Paris"
PERFORMER "Leny Andrade"
INDEX 01 00:00:00
FILE "12 - Coisa nuvem.wav" WAVE
TRACK 12 AUDIO
TITLE "Coisa nuvem"
PERFORMER "Leny Andrade"
INDEX 01 00:00:00
 
Отчет CUETools
[CUETools log; Date: 28.06.2013 11:22:48; Version: 2.1.4]
[CTDB TOCID: .FmLcY_TbwWnV6nZFT5f5Vxlhlo-] disk not present in database.
[AccurateRip ID: 000d8834-007dcc8e-9b07310c] found.
Track [ CRC | V2 ] Status
01 [ed9305b9|7cbaee4d] (3+0/3) Accurately ripped
02 [89539f85|2717d1b1] (2+0/2) Accurately ripped
03 [090aef20|0e48dd5e] (2+0/2) Accurately ripped
04 [51efce53|2ab0d5d4] (2+0/2) Accurately ripped
05 [7ee6da29|2ff42286] (2+0/2) Accurately ripped
06 [b989f44e|5b73f6c5] (2+0/2) Accurately ripped
07 [52f2b5fe|5e5f48aa] (2+0/2) Accurately ripped
08 [5fb3e20b|bff813b8] (2+0/2) Accurately ripped
09 [4f7d31e3|e923faa5] (2+0/2) Accurately ripped
10 [4036c7b6|e88a8de0] (2+0/2) Accurately ripped
11 [df8bfb26|a8a952a2] (2+0/2) Accurately ripped
12 [472259f9|84fb18be] (2+0/2) Accurately ripped
Track Peak [ CRC32 ] [W/O NULL] [ LOG ]
-- 100,0 [1C0BFA35] [6A4C6261]
01 99,7 [89758795] [F4D33447] CRC32
02 98,1 [3ECC1E4B] [518CAF46] CRC32
03 96,7 [E0D8ADB6] [84BD6DC8] CRC32
04 97,0 [D3070000] [D4A6A4D3] CRC32
05 100,0 [6E05B859] [FE3EB662] CRC32
06 100,0 [2A5C1231] [3E27580B] CRC32
07 99,5 [77DE6F45] [9DA8C8AA] CRC32
08 96,1 [64D44055] [7A37B343] CRC32
09 93,3 [FE56790D] [3784B02E] CRC32
10 94,8 [6CA2FB62] [3BC33E99] CRC32
11 84,1 [CF17AD9F] [CC97BE37] CRC32
12 93,9 [5521D385] [08B98243] CRC32
 
Review by arwulf arwulf
By the time Estamos Ai was released by Odeon in 1968, Leny Andrade was a seasoned nightclub performer with at least two albums to her credit. A prótége of pop singer Ivon Curi, Andrade soon distinguished herself as one of Brazil's most accomplished jazz vocalists. Sometimes given to scat-singing with unaffected ease, she has been compared with her contemporary Elza Soares and the divine Flora Purim as well as North American jazzwomen Ella Fitzgerald and Anita O'Day. This pleasant and relaxing album was the result of Andrade's collaboration with Regina Werneck, Mauricio Einhorn, Durval Ferreira, and guitarist Geraldinho Vespar. It will satisfy anyone with a predilection for '60s jazz samba and bossa nova.
12:36
553
Нет комментариев. Ваш будет первым!