Поиск

(Brazilian Jazz, Samba, Vocal Jazz) Leny Andrade - Bossa Nova - 1991, FLAC (tracks+.cue), lossless

(Brazilian Jazz, Samba, Vocal Jazz) Leny Andrade - Bossa Nova - 1991, FLAC (tracks+.cue), lossless
Треклист:
Leny Andrade - Bossa Nova
Жанр: Brazilian Jazz, Samba, Vocal Jazz
Страна-производитель диска: Бразилия
Год издания: 1991
Издатель (лейбл): Eldorado
Номер по каталогу: 946011
Аудиокодек: FLAC (*.flac)
Тип рипа: tracks+.cue
Битрейт аудио: lossless
Продолжительность: 35:32
Источник (релизер): eduardofvasconcellos (what)
Наличие сканов в содержимом раздачи: нет
Треклист:
01. Rio (Menescal-Boscoli) - 3:08
02. Discussao (Mendonca-Jobim) - 3:00
03. Baiaozinho (Deodato) - 2:08
04. Chora tua tristeza (Fiorini-Castro Neves) - 2:23
05. Homenagem a Vinicius: Tempo feliz (Powell-De Moraes)/Sabe voce (Lyra-De Moraes)/Tem do (Powell-De Moraes) - 6:59
06. Meus Melhores Momentos (Maranesi) - 3:58
07. Deixa (Powell-De Moraes) - 2:07
08. Bluesette (Thielemans) - 5:28
09. Nos (Alf) - 3:32
10. Triste (Jobim) - 2:49
Состав:
Leny Andrade - vocals
Joao Carlos Coutinho - piano
Recorded at Estudios Veridiana, Sao Paulo in March 1991.
 
Лог создания рипа
Exact Audio Copy V1.0 beta 3 from 29. August 2011
EAC extraction logfile from 18. June 2013, 12:40
Leny Andrade / Bossa Nova
Used drive : HL-DT-STDVDRWBD CT40N Adapter: 0 ID: 0
Read mode : Secure
Utilize accurate stream : Yes
Defeat audio cache : Yes
Make use of C2 pointers : No
Read offset correction : 102
Overread into Lead-In and Lead-Out : No
Fill up missing offset samples with silence : Yes
Delete leading and trailing silent blocks : No
Null samples used in CRC calculations : Yes
Used interface : Native Win32 interface for Win NT & 2000
Gap handling : Appended to previous track
Used output format : User Defined Encoder
Selected bitrate : 1024 kBit/s
Quality : High
Add ID3 tag : No
Command line compressor : C:\Program Files (x86)\Exact Audio Copy\Flac\flac.exe
Additional command line options : -8 -V -T "ARTIST=%artist%" -T "TITLE=%title%" -T "ALBUM=%albumtitle%" -T "DATE=%year%" -T "TRACKNUMBER=%tracknr%" -T "GENRE=%genre%" -T "PERFORMER=%albuminterpret%" -T "COMPOSER=%composer%" %haslyrics%--tag-from-file=LYRICS="%lyricsfile%"%haslyrics% -T "ALBUMARTIST=%albumartist%" -T "DISCNUMBER=%cdnumber%" -T "TOTALDISCS=%totalcds%" -T "TOTALTRACKS=%numtracks%" -T "COMMENT=%comment%" %source% -o %dest%
TOC of the extracted CD
Track | Start | Length | Start sector | End sector
---------------------------------------------------------
1 | 0:00.00 | 3:07.72 | 0 | 14096
2 | 3:07.72 | 2:59.58 | 14097 | 27579
3 | 6:07.55 | 2:07.62 | 27580 | 37166
4 | 8:15.42 | 2:22.45 | 37167 | 47861
5 | 10:38.12 | 6:58.65 | 47862 | 79276
6 | 17:37.02 | 3:58.10 | 79277 | 97136
7 | 21:35.12 | 2:07.25 | 97137 | 106686
8 | 23:42.37 | 5:27.40 | 106687 | 131251
9 | 29:10.02 | 3:31.55 | 131252 | 147131
10 | 32:41.57 | 2:49.03 | 147132 | 159809
Track 1
Filename C:\EAC Rips\01 - Rio.wav
Pre-gap length 0:00:02.00
Peak level 100.0 %
Extraction speed 1.4 X
Track quality 99.8 %
Test CRC 92BC971E
Copy CRC 92BC971E
Cannot be verified as accurate (confidence 2) [E8DE1631], AccurateRip returned [F727A58D] (AR v2)
Copy OK
Track 2
Filename C:\EAC Rips\02 - Discussão.wav
Peak level 83.4 %
Extraction speed 2.6 X
Track quality 100.0 %
Test CRC 8C633312
Copy CRC 8C633312
Cannot be verified as accurate (confidence 2) [B2DE4DFA], AccurateRip returned [78E7923E] (AR v2)
Copy OK
Track 3
Filename C:\EAC Rips\03 - Baiãozinho.wav
Peak level 99.9 %
Extraction speed 1.9 X
Track quality 99.9 %
Test CRC 199A7A78
Copy CRC 199A7A78
Cannot be verified as accurate (confidence 2) [7FCC9CEB], AccurateRip returned [667EAF12] (AR v2)
Copy OK
Track 4
Filename C:\EAC Rips\04 - Chora Tua Tristeza.wav
Peak level 95.4 %
Extraction speed 2.8 X
Track quality 100.0 %
Test CRC 1AE4F675
Copy CRC 1AE4F675
Cannot be verified as accurate (confidence 2) [E02FC47D], AccurateRip returned [AA645FFD] (AR v2)
Copy OK
Track 5
Filename C:\EAC Rips\05 - Homenagem a Vinicius.wav
Peak level 99.8 %
Extraction speed 3.6 X
Track quality 100.0 %
Test CRC 45AF1A4F
Copy CRC 45AF1A4F
Cannot be verified as accurate (confidence 2) [BB0EB46B], AccurateRip returned [85AAF185] (AR v2)
Copy OK
Track 6
Filename C:\EAC Rips\06 - Meus Melhores Momentos.wav
Peak level 87.5 %
Extraction speed 3.7 X
Track quality 100.0 %
Test CRC 01954D03
Copy CRC 01954D03
Cannot be verified as accurate (confidence 2) [B32FB5A2], AccurateRip returned [BD12ED43] (AR v2)
Copy OK
Track 7
Filename C:\EAC Rips\07 - Deixa.wav
Peak level 93.8 %
Extraction speed 3.2 X
Track quality 100.0 %
Test CRC 7D507345
Copy CRC 7D507345
Cannot be verified as accurate (confidence 2) [21D06FAD], AccurateRip returned [B97C669B] (AR v2)
Copy OK
Track 8
Filename C:\EAC Rips\08 - Bluesette.wav
Peak level 99.9 %
Extraction speed 3.9 X
Track quality 100.0 %
Test CRC 31800DE0
Copy CRC 31800DE0
Cannot be verified as accurate (confidence 2) [204DAE7F], AccurateRip returned [BD13F71B] (AR v2)
Copy OK
Track 9
Filename C:\EAC Rips\09 - Nós.wav
Peak level 99.9 %
Extraction speed 3.9 X
Track quality 100.0 %
Test CRC 2DF60F8F
Copy CRC 2DF60F8F
Cannot be verified as accurate (confidence 2) [A333004B], AccurateRip returned [6634F908] (AR v2)
Copy OK
Track 10
Filename C:\EAC Rips\10 - Triste.wav
Peak level 94.2 %
Extraction speed 4.0 X
Track quality 100.0 %
Test CRC 56F22D51
Copy CRC 56F22D51
Cannot be verified as accurate (confidence 2) [B298862D], AccurateRip returned [81F6C0D2] (AR v2)
Copy OK
No tracks could be verified as accurate
You may have a different pressing from the one(s) in the database
No errors occurred
End of status report
---- CUETools DB Plugin V2.1.3
[CTDB TOCID: SaJ8ndrBJvRL_RpP3dzWRc9jFYQ-] disk not present in database, Submit result: SaJ8ndrBJvRL_RpP3dzWRc9jFYQ- has been uploaded
==== Log checksum 0A2663543EDAC236771C09C2B5CA12D00D0A1460C882EAC7A740656D5B5F4B50 ====
 
Содержание индексной карты (.CUE)
REM GENRE Jazz
REM DATE 1991
REM DISCID 9308520A
REM COMMENT "ExactAudioCopy v1.0b3"
CATALOG 5099758401721
PERFORMER "Leny Andrade"
TITLE "Bossa Nova"
FILE "01 - Rio.wav" WAVE
TRACK 01 AUDIO
TITLE "Rio"
PERFORMER "Leny Andrade"
INDEX 01 00:00:00
FILE "02 - Discussao.wav" WAVE
TRACK 02 AUDIO
TITLE "Discussao"
PERFORMER "Leny Andrade"
INDEX 01 00:00:00
FILE "03 - Baiaozinho.wav" WAVE
TRACK 03 AUDIO
TITLE "Baiaozinho"
PERFORMER "Leny Andrade"
INDEX 01 00:00:00
FILE "04 - Chora tua tristeza.wav" WAVE
TRACK 04 AUDIO
TITLE "Chora tua tristeza"
PERFORMER "Leny Andrade"
INDEX 01 00:00:00
FILE "05 - Homenagem a Vinicius- Tempo feliz-Sabe voce-Tem do.wav" WAVE
TRACK 05 AUDIO
TITLE "Homenagem a Vinicius: Tempo feliz/Sabe voce/Tem do"
PERFORMER "Leny Andrade"
INDEX 01 00:00:00
FILE "06 - Meus Melhores Momentos.wav" WAVE
TRACK 06 AUDIO
TITLE "Meus Melhores Momentos"
PERFORMER "Leny Andrade"
INDEX 01 00:00:00
FILE "07 - Deixa.wav" WAVE
TRACK 07 AUDIO
TITLE "Deixa"
PERFORMER "Leny Andrade"
INDEX 01 00:00:00
FILE "08 - Bluesette.wav" WAVE
TRACK 08 AUDIO
TITLE "Bluesette"
PERFORMER "Leny Andrade"
INDEX 01 00:00:00
FILE "09 - Nos.wav" WAVE
TRACK 09 AUDIO
TITLE "Nos"
PERFORMER "Leny Andrade"
INDEX 01 00:00:00
FILE "10 - Triste.wav" WAVE
TRACK 10 AUDIO
TITLE "Triste"
PERFORMER "Leny Andrade"
INDEX 01 00:00:00
 
Отчет CUETools
[CUETools log; Date: 28.06.2013 19:08:54; Version: 2.1.4]
[CTDB TOCID: SaJ8ndrBJvRL_RpP3dzWRc9jFYQ-] found.
Track | CTDB Status
1 | (1/1) Accurately ripped
2 | (1/1) Accurately ripped
3 | (1/1) Accurately ripped
4 | (1/1) Accurately ripped
5 | (1/1) Accurately ripped
6 | (1/1) Accurately ripped
7 | (1/1) Accurately ripped
8 | (1/1) Accurately ripped
9 | (1/1) Accurately ripped
10 | (1/1) Accurately ripped
[AccurateRip ID: 000cf081-00699180-9308520a] found.
Track [ CRC | V2 ] Status
01 [2df8847b|e8de1631] (0+0/2) No match
02 [c9cd8cbe|b2de4dfa] (0+0/2) No match
03 [e7e612c7|7fcc9ceb] (0+0/2) No match
04 [61f981eb|e02fc47d] (0+0/2) No match
05 [5746f2e3|bb0eb46b] (0+0/2) No match
06 [9c380c97|b32fb5a2] (0+0/2) No match
07 [82e57742|21d06fad] (0+0/2) No match
08 [617d8b3a|204dae7f] (0+0/2) No match
09 [724c300e|a333004b] (0+0/2) No match
10 [873114e8|b298862d] (0+0/2) No match
Offsetted by 872:
01 [f727a58d] (2/2) Accurately ripped
02 [78e7923e] (2/2) Accurately ripped
03 [667eaf12] (2/2) Accurately ripped
04 [aa645ffd] (2/2) Accurately ripped
05 [4a39bd35] (0/2) No match (V2 was not tested)
06 [bd12ed43] (2/2) Accurately ripped
07 [b97c669b] (2/2) Accurately ripped
08 [bd13f71b] (2/2) Accurately ripped
09 [6634f908] (2/2) Accurately ripped
10 [81f6c0d2] (2/2) Accurately ripped
Track Peak [ CRC32 ] [W/O NULL] [ LOG ]
-- 100,0 [EA3F3526] [BDFFE148]
01 100,0 [92BC971E] [0AD84C9C] CRC32
02 83,3 [8C633312] [0233608C] CRC32
03 99,9 [199A7A78] [738CB661] CRC32
04 95,4 [1AE4F675] [55253BB5] CRC32
05 99,8 [45AF1A4F] [8EB3FA9B] CRC32
06 87,5 [01954D03] [904B0A6E] CRC32
07 93,8 [7D507345] [E56A24A3] CRC32
08 99,9 [31800DE0] [17B0FE4E] CRC32
09 99,9 [2DF60F8F] [53D4EF85] CRC32
10 94,2 [56F22D51] [E2F905B7] CRC32
11:38
556
Нет комментариев. Ваш будет первым!