Поиск

(Brazilian Jazz, Samba Jazz, Bossa Nova) [CD] Paulinho da Viola - Projeto Fanzine - 1990, APE (tracks+.cue), lossless

(Brazilian Jazz, Samba Jazz, Bossa Nova) [CD] Paulinho da Viola - Projeto Fanzine - 1990, APE (tracks+.cue), lossless
Треклист:
Paulinho da Viola / Projeto Fanzine
Жанр: Brazilian Jazz, Samba Jazz, Bossa Nova
Носитель: CD
Страна-производитель диска (релиза): Brazil
Год издания: 1990
Издатель (лейбл): WEA
Номер по каталогу: 172970-2
Страна исполнителя (группы): Brazil
Аудиокодек: APE (*.ape)
Тип рипа: tracks+.cue
Битрейт аудио: lossless
Продолжительность: 45:46
Источник (релизер): собственный рип
Наличие сканов в содержимом раздачи: да
Треклист:
01. Rumo Dos Ventos
02. Não E Assim
03. Meu Violão
04. Que Trabalho E Esse
05. Nos Os Foliões
06. Brancas E Pretas
07. O Tempo Não Apagou
08. Retiro
09. Mas Quem Disse Que Eu Te Esqueço
10. Prisma Luminoso
11. Onde A Dor Não Tem Razão
12. Pra Jogar No Oceano
13. Último Lance
14. Ladeira Do Chapelão
 
Лог создания рипа
Exact Audio Copy V1.0 beta 6 from 9. April 2015
EAC extraction logfile from 15. March 2016, 21:34
Paulinho da Viola / Projeto Fanzine
Used drive : Optiarc DVD RW AD-7200S Adapter: 1 ID: 1
Read mode : Secure
Utilize accurate stream : Yes
Defeat audio cache : Yes
Make use of C2 pointers : No
Read offset correction : 48
Overread into Lead-In and Lead-Out : No
Fill up missing offset samples with silence : Yes
Delete leading and trailing silent blocks : No
Null samples used in CRC calculations : Yes
Used interface : Native Win32 interface for Win NT & 2000
Gap handling : Appended to previous track
Used output format : User Defined Encoder
Selected bitrate : 1024 kBit/s
Quality : High
Add ID3 tag : No
Command line compressor : C:\Program Files (x86)\Monkey's Audio\wapet.exe
Additional command line options : %dest% -t "Genre=%genre%" -t "Artist=%artist%" -t "Title=%title%" -t "Album=%albumtitle%" -t "Year=%year%" -t "Track=%tracknr%" -t "Comment=%comment%" mac.exe %source% %dest% -c4000
TOC of the extracted CD
Track | Start | Length | Start sector | End sector
---------------------------------------------------------
1 | 0:00.00 | 2:38.17 | 0 | 11866
2 | 2:38.17 | 3:20.50 | 11867 | 26916
3 | 5:58.67 | 2:48.53 | 26917 | 39569
4 | 8:47.45 | 2:57.47 | 39570 | 52891
5 | 11:45.17 | 3:28.48 | 52892 | 68539
6 | 15:13.65 | 3:28.55 | 68540 | 84194
7 | 18:42.45 | 3:22.02 | 84195 | 99346
8 | 22:04.47 | 2:49.33 | 99347 | 112054
9 | 24:54.05 | 3:18.05 | 112055 | 126909
10 | 28:12.10 | 3:01.62 | 126910 | 140546
11 | 31:13.72 | 4:08.20 | 140547 | 159166
12 | 35:22.17 | 3:32.20 | 159167 | 175086
13 | 38:54.37 | 3:44.25 | 175087 | 191911
14 | 42:38.62 | 3:13.48 | 191912 | 206434
Track 1
Filename D:\Paulinho da Viola\(1990) Projeto Fanzine\Paulinho da Viola - Projeto Fanzine - 01. Rumo dos Ventos.wav
Pre-gap length 0:00:02.00
Peak level 89.2 %
Extraction speed 2.1 X
Track quality 100.0 %
Test CRC 25DF9C43
Copy CRC 25DF9C43
Accurately ripped (confidence 1) [EC9DE685] (AR v2)
Copy OK
Track 2
Filename D:\Paulinho da Viola\(1990) Projeto Fanzine\Paulinho da Viola - Projeto Fanzine - 02. Não É Assim.wav
Pre-gap length 0:00:02.50
Peak level 89.6 %
Extraction speed 2.4 X
Track quality 100.0 %
Test CRC 7D30FB28
Copy CRC 7D30FB28
Accurately ripped (confidence 1) [BAA0340F] (AR v2)
Copy OK
Track 3
Filename D:\Paulinho da Viola\(1990) Projeto Fanzine\Paulinho da Viola - Projeto Fanzine - 03. Meu Violão.wav
Pre-gap length 0:00:02.50
Peak level 90.8 %
Extraction speed 2.5 X
Track quality 100.0 %
Test CRC 55A46EE9
Copy CRC 55A46EE9
Accurately ripped (confidence 1) [34A379C3] (AR v2)
Copy OK
Track 4
Filename D:\Paulinho da Viola\(1990) Projeto Fanzine\Paulinho da Viola - Projeto Fanzine - 04. Que Trabalho É Esse.wav
Pre-gap length 0:00:02.50
Peak level 93.3 %
Extraction speed 2.3 X
Track quality 99.9 %
Test CRC E495DBC0
Copy CRC E495DBC0
Accurately ripped (confidence 1) [96C95623] (AR v2)
Copy OK
Track 5
Filename D:\Paulinho da Viola\(1990) Projeto Fanzine\Paulinho da Viola - Projeto Fanzine - 05. Nós os Foliões.wav
Pre-gap length 0:00:02.50
Peak level 83.2 %
Extraction speed 2.9 X
Track quality 100.0 %
Test CRC C66C78B6
Copy CRC C66C78B6
Accurately ripped (confidence 1) [17EF57DE] (AR v2)
Copy OK
Track 6
Filename D:\Paulinho da Viola\(1990) Projeto Fanzine\Paulinho da Viola - Projeto Fanzine - 06. Brancas e Pretas.wav
Pre-gap length 0:00:02.50
Peak level 89.1 %
Extraction speed 3.1 X
Track quality 100.0 %
Test CRC 937953F9
Copy CRC 937953F9
Accurately ripped (confidence 1) [C0635EA4] (AR v2)
Copy OK
Track 7
Filename D:\Paulinho da Viola\(1990) Projeto Fanzine\Paulinho da Viola - Projeto Fanzine - 07. O Tempo Não Apagou.wav
Pre-gap length 0:00:02.50
Peak level 90.5 %
Extraction speed 3.3 X
Track quality 100.0 %
Test CRC 80EB75D9
Copy CRC 80EB75D9
Accurately ripped (confidence 1) [8AA64A1E] (AR v2)
Copy OK
Track 8
Filename D:\Paulinho da Viola\(1990) Projeto Fanzine\Paulinho da Viola - Projeto Fanzine - 08. Retiro.wav
Pre-gap length 0:00:02.50
Peak level 89.9 %
Extraction speed 3.3 X
Track quality 100.0 %
Test CRC 9A69AD52
Copy CRC 9A69AD52
Accurately ripped (confidence 1) [D618D2B9] (AR v2)
Copy OK
Track 9
Filename D:\Paulinho da Viola\(1990) Projeto Fanzine\Paulinho da Viola - Projeto Fanzine - 09. Mas quem Disse que Eu Te Esqueço.wav
Pre-gap length 0:00:02.50
Peak level 93.3 %
Extraction speed 3.5 X
Track quality 100.0 %
Test CRC 750C7757
Copy CRC 750C7757
Accurately ripped (confidence 1) [78A007F2] (AR v2)
Copy OK
Track 10
Filename D:\Paulinho da Viola\(1990) Projeto Fanzine\Paulinho da Viola - Projeto Fanzine - 10. Prisma Luminoso.wav
Pre-gap length 0:00:02.50
Peak level 88.6 %
Extraction speed 3.5 X
Track quality 100.0 %
Test CRC 673ADD98
Copy CRC 673ADD98
Accurately ripped (confidence 1) [208FE071] (AR v2)
Copy OK
Track 11
Filename D:\Paulinho da Viola\(1990) Projeto Fanzine\Paulinho da Viola - Projeto Fanzine - 11. Onde a Dor Não Tem Razão.wav
Pre-gap length 0:00:02.50
Peak level 93.3 %
Extraction speed 3.9 X
Track quality 100.0 %
Test CRC 2610D04F
Copy CRC 2610D04F
Accurately ripped (confidence 1) [4D7DA472] (AR v2)
Copy OK
Track 12
Filename D:\Paulinho da Viola\(1990) Projeto Fanzine\Paulinho da Viola - Projeto Fanzine - 12. Para Jogar no Oceano.wav
Pre-gap length 0:00:02.50
Peak level 87.0 %
Extraction speed 4.0 X
Track quality 100.0 %
Test CRC A4C612B3
Copy CRC A4C612B3
Accurately ripped (confidence 1) [176820E2] (AR v2)
Copy OK
Track 13
Filename D:\Paulinho da Viola\(1990) Projeto Fanzine\Paulinho da Viola - Projeto Fanzine - 13. Último Lance.wav
Pre-gap length 0:00:02.50
Peak level 88.3 %
Extraction speed 4.1 X
Track quality 100.0 %
Test CRC 02477C57
Copy CRC 02477C57
Accurately ripped (confidence 1) [BE3981DD] (AR v2)
Copy OK
Track 14
Filename D:\Paulinho da Viola\(1990) Projeto Fanzine\Paulinho da Viola - Projeto Fanzine - 14. Ladeira do Chapelão.wav
Pre-gap length 0:00:02.50
Peak level 93.3 %
Extraction speed 4.1 X
Track quality 100.0 %
Test CRC FA3A1222
Copy CRC FA3A1222
Accurately ripped (confidence 1) [F13C8E47] (AR v2)
Copy OK
All tracks accurately ripped
No errors occurred
End of status report
==== Log checksum 4D5307085029DCC818A7F3DCC07EC692C3EA45E145E6A4B5240E6F1228B5BC51 ====
 
Содержание индексной карты (.CUE)
REM GENRE MPB
REM DATE 1990
REM DISCID B40AC00E
REM COMMENT "ExactAudioCopy v1.0b6"
CATALOG 0000000000000
PERFORMER "Paulinho da Viola"
TITLE "Projeto Fanzine"
FILE "Paulinho da Viola - Projeto Fanzine - 01. Rumo dos Ventos.wav" WAVE
TRACK 01 AUDIO
TITLE "Rumo dos Ventos"
PERFORMER "Paulinho da Viola"
INDEX 01 00:00:00
TRACK 02 AUDIO
TITLE "Nao E Assim"
PERFORMER "Paulinho da Viola"
INDEX 00 02:35:42
FILE "Paulinho da Viola - Projeto Fanzine - 02. Não É Assim.wav" WAVE
INDEX 01 00:00:00
TRACK 03 AUDIO
TITLE "Meu Violao"
PERFORMER "Paulinho da Viola"
INDEX 00 03:18:00
FILE "Paulinho da Viola - Projeto Fanzine - 03. Meu Violão.wav" WAVE
INDEX 01 00:00:00
TRACK 04 AUDIO
TITLE "Que Trabalho E Esse"
PERFORMER "Paulinho da Viola"
INDEX 00 02:46:03
FILE "Paulinho da Viola - Projeto Fanzine - 04. Que Trabalho É Esse.wav" WAVE
INDEX 01 00:00:00
TRACK 05 AUDIO
TITLE "Nos os Folioes"
PERFORMER "Paulinho da Viola"
INDEX 00 02:54:72
FILE "Paulinho da Viola - Projeto Fanzine - 05. Nós os Foliões.wav" WAVE
INDEX 01 00:00:00
TRACK 06 AUDIO
TITLE "Brancas e Pretas"
PERFORMER "Paulinho da Viola"
INDEX 00 03:25:73
FILE "Paulinho da Viola - Projeto Fanzine - 06. Brancas e Pretas.wav" WAVE
INDEX 01 00:00:00
TRACK 07 AUDIO
TITLE "O Tempo Nao Apagou"
PERFORMER "Paulinho da Viola"
INDEX 00 03:26:05
FILE "Paulinho da Viola - Projeto Fanzine - 07. O Tempo Não Apagou.wav" WAVE
INDEX 01 00:00:00
TRACK 08 AUDIO
TITLE "Retiro"
PERFORMER "Paulinho da Viola"
INDEX 00 03:19:27
FILE "Paulinho da Viola - Projeto Fanzine - 08. Retiro.wav" WAVE
INDEX 01 00:00:00
TRACK 09 AUDIO
TITLE "Mas quem Disse que Eu Te Esqueco"
PERFORMER "Paulinho da Viola"
INDEX 00 02:46:58
FILE "Paulinho da Viola - Projeto Fanzine - 09. Mas quem Disse que Eu Te Esqueço.wav" WAVE
INDEX 01 00:00:00
TRACK 10 AUDIO
TITLE "Prisma Luminoso"
PERFORMER "Paulinho da Viola"
INDEX 00 03:15:30
FILE "Paulinho da Viola - Projeto Fanzine - 10. Prisma Luminoso.wav" WAVE
INDEX 01 00:00:00
TRACK 11 AUDIO
TITLE "Onde a Dor Nao Tem Razao"
PERFORMER "Paulinho da Viola"
INDEX 00 02:59:12
FILE "Paulinho da Viola - Projeto Fanzine - 11. Onde a Dor Não Tem Razão.wav" WAVE
INDEX 01 00:00:00
TRACK 12 AUDIO
TITLE "Para Jogar no Oceano"
PERFORMER "Paulinho da Viola"
INDEX 00 04:05:45
FILE "Paulinho da Viola - Projeto Fanzine - 12. Para Jogar no Oceano.wav" WAVE
INDEX 01 00:00:00
TRACK 13 AUDIO
TITLE "Ultimo Lance"
PERFORMER "Paulinho da Viola"
INDEX 00 03:29:45
FILE "Paulinho da Viola - Projeto Fanzine - 13. Último Lance.wav" WAVE
INDEX 01 00:00:00
TRACK 14 AUDIO
TITLE "Ladeira do Chapelao"
PERFORMER "Paulinho da Viola"
INDEX 00 03:41:50
FILE "Paulinho da Viola - Projeto Fanzine - 14. Ladeira do Chapelão.wav" WAVE
INDEX 01 00:00:00
20:59
239
Нет комментариев. Ваш будет первым!