Поиск

(Brazilian Jazz, Samba, Bossa Nova) Beth Carvalho - Pandeiro e Viola (1975) - 2010, FLAC (tracks+.cue), lossless

(Brazilian Jazz, Samba, Bossa Nova) Beth Carvalho - Pandeiro e Viola (1975) - 2010, FLAC (tracks+.cue), lossless
Треклист:
Beth Carvalho
Pandeiro e Viola
.

.
Жанр: Brazilian Jazz, Samba, Bossa Nova | Страна: Brazil
Дата выпуска альбома / диска: 1975 / 2010 | Производитель диска: DiscoBertas, Brasil
Аудио кодек: FLAC | Тип рипа: tracks+.cue | Битрейт аудио: lossless
+ PNG art scans
Формат: Studio Album
Источник: original CD, ripped by Flabber
Продолжительность: 40:33
.~ TRACKLiST ~
01. So Queria Ser Feliz (3:01)
02. O Pior e Saber (3:21)
03. Pandeiro e Viola (2:54)
04. Amor Sem Esperanca (3:22)
05. Onde Esta a Honestidade (2:17)
06. Gota d'Agua (2:50)
07. Enamorada do Sambao (3:36)
08. O Dia de Amanha(3:09)
09. Amor Fiel (2:46)
10. De Novo Desamor (2:59)
11. Sente o Peso do Couro (2:06)
12. Cansaco (2:57)
13. Alegria (2:21)
14. Pesquisa (2:54)
.
 
EAC log
Exact Audio Copy V0.99 prebeta 5 from 4. May 2009
EAC extraction logfile from 16. March 2011, 7:21
Beth Carvalho / Pandeiro e Viola
Used drive : PLEXTOR DVDR PX-880SA Adapter: 0 ID: 0
Read mode : Secure
Utilize accurate stream : Yes
Defeat audio cache : Yes
Make use of C2 pointers : No
Read offset correction : 6
Overread into Lead-In and Lead-Out : No
Fill up missing offset samples with silence : Yes
Delete leading and trailing silent blocks : No
Null samples used in CRC calculations : Yes
Used interface : Native Win32 interface for Win NT & 2000
Gap handling : Appended to previous track
Used output format : User Defined Encoder
Selected bitrate : 768 kBit/s
Quality : High
Add ID3 tag : No
Command line compressor : C:\Program Files (x86)\Exact Audio Copy\FLAC\FLAC.EXE
Additional command line options : -8 -V -T "ARTIST=%a" -T "TITLE=%t" -T "ALBUM=%g" -T "DATE=%y" -T
"TRACKNUMBER=%n" -T "TOTALTRACKS=%x" -T "GENRE=%m" -T "ALBUM ARTIST=%v" -T "ALBUMARTIST=%v" -T
"COMMENT=EAC V0.99 prebeta 5, Secure Mode, Test & Copy, Accurat
TOC of the extracted CD
Track | Start | Length | Start sector | End sector
---------------------------------------------------------
1 | 0:00.00 | 3:01.34 | 0 | 13608
2 | 3:01.34 | 3:21.18 | 13609 | 28701
3 | 6:22.52 | 2:54.58 | 28702 | 41809
4 | 9:17.35 | 3:22.61 | 41810 | 57020
5 | 12:40.21 | 2:17.18 | 57021 | 67313
6 | 14:57.39 | 2:50.03 | 67314 | 80066
7 | 17:47.42 | 3:36.67 | 80067 | 96333
8 | 21:24.34 | 3:09.46 | 96334 | 110554
9 | 24:34.05 | 2:46.15 | 110555 | 123019
10 | 27:20.20 | 2:59.44 | 123020 | 136488
11 | 30:19.64 | 2:06.62 | 136489 | 146000
12 | 32:26.51 | 2:57.11 | 146001 | 159286
13 | 35:23.62 | 2:21.37 | 159287 | 169898
14 | 37:45.24 | 2:54.28 | 169899 | 182976
Track 1
Filename D:\01 - So Queria Ser Feliz.wav
Pre-gap length 0:00:02.00
Peak level 100.0 %
Track quality 100.0 %
Test CRC 91051750
Copy CRC 91051750
Track not present in AccurateRip database
Copy OK
Track 2
Filename D:\02 - O Pior E Saber.wav
Pre-gap length 0:00:02.00
Peak level 99.9 %
Track quality 99.9 %
Test CRC 6217BBC4
Copy CRC 6217BBC4
Track not present in AccurateRip database
Copy OK
Track 3
Filename D:\03 - Pandeiro e Viola.wav
Pre-gap length 0:00:02.00
Peak level 99.9 %
Track quality 100.0 %
Test CRC C4DD1624
Copy CRC C4DD1624
Track not present in AccurateRip database
Copy OK
Track 4
Filename D:\04 - Amor Sem Esperanca.wav
Pre-gap length 0:00:02.00
Peak level 99.9 %
Track quality 100.0 %
Test CRC C2BFBB36
Copy CRC C2BFBB36
Track not present in AccurateRip database
Copy OK
Track 5
Filename D:\05 - Onde Esta a Honestidade.wav
Pre-gap length 0:00:02.00
Peak level 99.9 %
Track quality 100.0 %
Test CRC 21AA2C63
Copy CRC 21AA2C63
Track not present in AccurateRip database
Copy OK
Track 6
Filename D:\06 - Gota d'Agua.wav
Pre-gap length 0:00:02.00
Peak level 99.9 %
Track quality 100.0 %
Test CRC CD4DBF12
Copy CRC CD4DBF12
Track not present in AccurateRip database
Copy OK
Track 7
Filename D:\07 - Enamorada do Sambao.wav
Pre-gap length 0:00:02.00
Peak level 99.9 %
Track quality 100.0 %
Test CRC BF4E7BD6
Copy CRC BF4E7BD6
Track not present in AccurateRip database
Copy OK
Track 8
Filename D:\08 - O Dia de Amanha.wav
Pre-gap length 0:00:02.00
Peak level 99.9 %
Track quality 99.9 %
Test CRC C672FDD6
Copy CRC C672FDD6
Track not present in AccurateRip database
Copy OK
Track 9
Filename D:\09 - Amor Fiel.wav
Pre-gap length 0:00:02.00
Peak level 99.9 %
Track quality 100.0 %
Test CRC 586C63A0
Copy CRC 586C63A0
Track not present in AccurateRip database
Copy OK
Track 10
Filename D:\10 - De Novo Desamor.wav
Pre-gap length 0:00:02.00
Peak level 99.9 %
Track quality 100.0 %
Test CRC 58282383
Copy CRC 58282383
Track not present in AccurateRip database
Copy OK
Track 11
Filename D:\11 - Sente o Peso do Couro.wav
Pre-gap length 0:00:02.00
Peak level 99.9 %
Track quality 99.9 %
Test CRC 07E27448
Copy CRC 07E27448
Track not present in AccurateRip database
Copy OK
Track 12
Filename D:\12 - Cansaco.wav
Pre-gap length 0:00:02.00
Peak level 99.9 %
Track quality 100.0 %
Test CRC A4FEB25C
Copy CRC A4FEB25C
Track not present in AccurateRip database
Copy OK
Track 13
Filename D:\13 - Alegria.wav
Pre-gap length 0:00:02.00
Peak level 99.9 %
Track quality 100.0 %
Test CRC 04070E1D
Copy CRC 04070E1D
Track not present in AccurateRip database
Copy OK
Track 14
Filename D:\14 - Pesquisa.wav
Pre-gap length 0:00:02.00
Peak level 100.0 %
Track quality 100.0 %
Test CRC 3908B9B6
Copy CRC 3908B9B6
Track not present in AccurateRip database
Copy OK
None of the tracks are present in the AccurateRip database
No errors occurred
End of status report
 
*.cue
REM GENRE Samba
REM DATE 1975
REM DISCID D609870E
REM COMMENT "ExactAudioCopy v0.99pb5"
PERFORMER "Beth Carvalho"
TITLE "Pandeiro e Viola"
FILE "01 - So Queria Ser Feliz.wav" WAVE
TRACK 01 AUDIO
TITLE "So Queria Ser Feliz"
PERFORMER "Beth Carvalho"
ISRC M21VA7500001
INDEX 01 00:00:00
TRACK 02 AUDIO
TITLE "O Pior E Saber"
PERFORMER "Beth Carvalho"
ISRC M21VA7500002
INDEX 00 02:59:34
FILE "02 - O Pior E Saber.wav" WAVE
INDEX 01 00:00:00
TRACK 03 AUDIO
TITLE "Pandeiro e Viola"
PERFORMER "Beth Carvalho"
ISRC M21VA7500003
INDEX 00 03:19:18
FILE "03 - Pandeiro e Viola.wav" WAVE
INDEX 01 00:00:00
TRACK 04 AUDIO
TITLE "Amor Sem Esperanca"
PERFORMER "Beth Carvalho"
ISRC M21VA7500004
INDEX 00 02:52:58
FILE "04 - Amor Sem Esperanca.wav" WAVE
INDEX 01 00:00:00
TRACK 05 AUDIO
TITLE "Onde Esta a Honestidade"
PERFORMER "Beth Carvalho"
ISRC M21VA7500005
INDEX 00 03:20:61
FILE "05 - Onde Esta a Honestidade.wav" WAVE
INDEX 01 00:00:00
TRACK 06 AUDIO
TITLE "Gota d'Agua"
PERFORMER "Beth Carvalho"
ISRC M21VA7500006
INDEX 00 02:15:18
FILE "06 - Gota d'Agua.wav" WAVE
INDEX 01 00:00:00
TRACK 07 AUDIO
TITLE "Enamorada do Sambao"
PERFORMER "Beth Carvalho"
ISRC M21VA7500007
INDEX 00 02:48:03
FILE "07 - Enamorada do Sambao.wav" WAVE
INDEX 01 00:00:00
TRACK 08 AUDIO
TITLE "O Dia de Amanha"
PERFORMER "Beth Carvalho"
ISRC M21VA7500008
INDEX 00 03:34:67
FILE "08 - O Dia de Amanha.wav" WAVE
INDEX 01 00:00:00
TRACK 09 AUDIO
TITLE "Amor Fiel"
PERFORMER "Beth Carvalho"
ISRC M21VA7500009
INDEX 00 03:07:46
FILE "09 - Amor Fiel.wav" WAVE
INDEX 01 00:00:00
TRACK 10 AUDIO
TITLE "De Novo Desamor"
PERFORMER "Beth Carvalho"
ISRC M21VA7500010
INDEX 00 02:44:15
FILE "10 - De Novo Desamor.wav" WAVE
INDEX 01 00:00:00
TRACK 11 AUDIO
TITLE "Sente o Peso do Couro"
PERFORMER "Beth Carvalho"
ISRC M21VA7500011
INDEX 00 02:57:44
FILE "11 - Sente o Peso do Couro.wav" WAVE
INDEX 01 00:00:00
TRACK 12 AUDIO
TITLE "Cansaco"
PERFORMER "Beth Carvalho"
ISRC M21VA7500012
INDEX 00 02:04:62
FILE "12 - Cansaco.wav" WAVE
INDEX 01 00:00:00
TRACK 13 AUDIO
TITLE "Alegria"
PERFORMER "Beth Carvalho"
ISRC M21VA7500013
INDEX 00 02:55:11
FILE "13 - Alegria.wav" WAVE
INDEX 01 00:00:00
TRACK 14 AUDIO
TITLE "Pesquisa"
PERFORMER "Beth Carvalho"
ISRC M21VA7500014
INDEX 00 02:19:37
FILE "14 - Pesquisa.wav" WAVE
INDEX 01 00:00:00
 
Audiochecker’s log
AUDIOCHECKER v2.0 beta (build 457) - by Dester - opdester@freemail.hu
~~~~~~~~~~~~~~~~~~~~~~~~~~~~~~~~~~
Started at: четверг, 17. 11. 2011. - 17:31.08
14 files found
01 -===- F:\Beth Carvalho - Pandeiro e Viola (1975) 2010 [flac]\01 - So Queria Ser Feliz.flac
Extracted successfully
Conclusion: this track is CDDA with probability 100%
Tempfile successfully deleted.
02 -===- F:\Beth Carvalho - Pandeiro e Viola (1975) 2010 [flac]\02 - O Pior E Saber.flac
Extracted successfully
Conclusion: this track is CDDA with probability 100%
Tempfile successfully deleted.
03 -===- F:\Beth Carvalho - Pandeiro e Viola (1975) 2010 [flac]\03 - Pandeiro e Viola.flac
Extracted successfully
Conclusion: this track is CDDA with probability 100%
Tempfile successfully deleted.
04 -===- F:\Beth Carvalho - Pandeiro e Viola (1975) 2010 [flac]\04 - Amor Sem Esperanca.flac
Extracted successfully
Conclusion: this track is CDDA with probability 99%
Tempfile successfully deleted.
05 -===- F:\Beth Carvalho - Pandeiro e Viola (1975) 2010 [flac]\05 - Onde Esta a Honestidade.flac
Extracted successfully
Conclusion: this track is CDDA with probability 100%
Tempfile successfully deleted.
06 -===- F:\Beth Carvalho - Pandeiro e Viola (1975) 2010 [flac]\06 - Gota d'Agua.flac
Extracted successfully
Conclusion: this track is CDDA with probability 100%
Tempfile successfully deleted.
07 -===- F:\Beth Carvalho - Pandeiro e Viola (1975) 2010 [flac]\07 - Enamorada do Sambao.flac
Extracted successfully
Conclusion: this track is CDDA with probability 100%
Tempfile successfully deleted.
08 -===- F:\Beth Carvalho - Pandeiro e Viola (1975) 2010 [flac]\08 - O Dia de Amanha.flac
Extracted successfully
Conclusion: this track is CDDA with probability 100%
Tempfile successfully deleted.
09 -===- F:\Beth Carvalho - Pandeiro e Viola (1975) 2010 [flac]\09 - Amor Fiel.flac
Extracted successfully
Conclusion: this track is CDDA with probability 100%
Tempfile successfully deleted.
10 -===- F:\Beth Carvalho - Pandeiro e Viola (1975) 2010 [flac]\10 - De Novo Desamor.flac
Extracted successfully
Conclusion: this track is CDDA with probability 100%
Tempfile successfully deleted.
11 -===- F:\Beth Carvalho - Pandeiro e Viola (1975) 2010 [flac]\11 - Sente o Peso do Couro.flac
Extracted successfully
Conclusion: this track is CDDA with probability 100%
Tempfile successfully deleted.
12 -===- F:\Beth Carvalho - Pandeiro e Viola (1975) 2010 [flac]\12 - Cansaco.flac
Extracted successfully
Conclusion: this track is CDDA with probability 100%
Tempfile successfully deleted.
13 -===- F:\Beth Carvalho - Pandeiro e Viola (1975) 2010 [flac]\13 - Alegria.flac
Extracted successfully
Conclusion: this track is MPEG with probability 100%
Tempfile successfully deleted.
14 -===- F:\Beth Carvalho - Pandeiro e Viola (1975) 2010 [flac]\14 - Pesquisa.flac
Extracted successfully
Conclusion: this track is CDDA with probability 54%
Tempfile successfully deleted.
Finished at: четверг, 17. 11. 2011. - 17:50.33 (operation time: 0:19.25)

Сидирую до первых 10-ти скачавших. Далее раздача поддерживается силами скачавших.
Скачали сами - дайте скачать другим. .
00:57
285
Нет комментариев. Ваш будет первым!