Поиск

(Brazilian Jazz, Latin Jazz, World Fusion, Bossa Nova) Laurindo Almeida - Outra Vez - 1992, FLAC (tracks+.cue), lossless

(Brazilian Jazz, Latin Jazz, World Fusion, Bossa Nova) Laurindo Almeida - Outra Vez - 1992, FLAC (tracks+.cue), lossless
Треклист:
•Laurindo Almeida - Outra Vez•
Жанр: Brazilian Jazz, Latin Jazz, World Fusion, Bossa Nova
Страна-производитель диска: USA
Год издания: 1992
Издатель (лейбл): Concord Picante
Номер по каталогу: CCD-4497
Аудиокодек: FLAC (*.flac)
Тип рипа: tracks+.cue
Битрейт аудио: lossless
Продолжительность: 00:54:30
Источник (релизер): artmuss
Наличие сканов в содержимом раздачи: да
Треклист:
01. Outra Vez (Once Again) [04:56]
02. The Jolly Crow [03:45]
03. Danza Five [05:25]
04. Blue Skies [03:55]
05. Goin Home (from New World Symphony) [06:14]
06. Samba de Break [05:40]
07. Beethoven n Monk (Moonlight Sonata n Round Midnight) [08:41]
08. Escado [03:46]
09. Um a Zero (One to Nothing) [02:46]
10. Carinhoso (Affectionate) [04:34]
11. Jobim Medley [04:43]
 
Лог создания рипа
Exact Audio Copy V0.99 prebeta 4 from 23. January 2008
EAC extraction logfile from 25. July 2010, 20:58
Laurindo_Almeida / Outra_Vez
Used drive : DVDRW 16X16X Adapter: 0 ID: 1
Read mode : Secure
Utilize accurate stream : Yes
Defeat audio cache : Yes
Make use of C2 pointers : No
Read offset correction : 6
Overread into Lead-In and Lead-Out : No
Fill up missing offset samples with silence : Yes
Delete leading and trailing silent blocks : No
Null samples used in CRC calculations : Yes
Used interface : Native Win32 interface for Win NT & 2000
Gap handling : Appended to previous track
Used output format : Internal WAV Routines
Sample format : 44.100 Hz; 16 Bit; Stereo
TOC of the extracted CD
Track | Start | Length | Start sector | End sector
---------------------------------------------------------
1 | 0:00.00 | 4:56.68 | 0 | 22267
2 | 4:56.68 | 3:45.30 | 22268 | 39172
3 | 8:42.23 | 5:25.12 | 39173 | 63559
4 | 14:07.35 | 3:55.45 | 63560 | 81229
5 | 18:03.05 | 6:14.08 | 81230 | 109287
6 | 24:17.13 | 5:40.52 | 109288 | 134839
7 | 29:57.65 | 8:41.60 | 134840 | 173974
8 | 38:39.50 | 3:46.33 | 173975 | 190957
9 | 42:26.08 | 2:46.60 | 190958 | 203467
10 | 45:12.68 | 4:34.30 | 203468 | 224047
11 | 49:47.23 | 4:43.52 | 224048 | 245324
Track 1
Filename Z:\Laurindo_Almeida\Outra_Vez\01_-_Outra_Vez_(Once_Again).wav
Pre-gap length 0:00:02.00
Peak level 75.2 %
Track quality 100.0 %
Test CRC 482456A4
Copy CRC 482456A4
Cannot be verified as accurate (confidence 2) [4E3B6C41], AccurateRip returned [74189321]
Copy OK
Track 2
Filename Z:\Laurindo_Almeida\Outra_Vez\02_-_The_Jolly_Crow.wav
Peak level 71.6 %
Track quality 100.0 %
Test CRC 99A8E7CA
Copy CRC 99A8E7CA
Cannot be verified as accurate (confidence 2) [C9FA8018], AccurateRip returned [138F1077]
Copy OK
Track 3
Filename Z:\Laurindo_Almeida\Outra_Vez\03_-_Danza_Five.wav
Peak level 72.3 %
Track quality 100.0 %
Test CRC A4FFD07A
Copy CRC A4FFD07A
Cannot be verified as accurate (confidence 2) [D10AC4A5], AccurateRip returned [95B98F36]
Copy OK
Track 4
Filename Z:\Laurindo_Almeida\Outra_Vez\04_-_Blue_Skies.wav
Peak level 80.0 %
Track quality 100.0 %
Test CRC A92901A5
Copy CRC A92901A5
Cannot be verified as accurate (confidence 2) [DD722CEC], AccurateRip returned [8735D914]
Copy OK
Track 5
Filename Z:\Laurindo_Almeida\Outra_Vez\05_-_Goin_Home_(from_New_World_Symphony).wav
Peak level 82.6 %
Track quality 100.0 %
Test CRC B46C476E
Copy CRC B46C476E
Cannot be verified as accurate (confidence 2) [309E25DE], AccurateRip returned [74D9880A]
Copy OK
Track 6
Filename Z:\Laurindo_Almeida\Outra_Vez\06_-_Samba_de_Break.wav
Peak level 77.7 %
Track quality 99.9 %
Test CRC A3F6A8B4
Copy CRC A3F6A8B4
Cannot be verified as accurate (confidence 2) [EB891562], AccurateRip returned [23527539]
Copy OK
Track 7
Filename Z:\Laurindo_Almeida\Outra_Vez\07_-_Beethoven_n_Monk_(Moonlight_Sonata_n_Round_Midnight).wav
Peak level 72.5 %
Track quality 100.0 %
Test CRC 26BC91C4
Copy CRC 26BC91C4
Cannot be verified as accurate (confidence 2) [77C6BB6F], AccurateRip returned [5892BB16]
Copy OK
Track 8
Filename Z:\Laurindo_Almeida\Outra_Vez\08_-_Escado.wav
Peak level 68.3 %
Track quality 99.9 %
Test CRC 132B5992
Copy CRC 132B5992
Cannot be verified as accurate (confidence 2) [CABCACAA], AccurateRip returned [71643A6B]
Copy OK
Track 9
Filename Z:\Laurindo_Almeida\Outra_Vez\09_-_Um_a_Zero_(One_to_Nothing).wav
Peak level 79.1 %
Track quality 100.0 %
Test CRC AAAFDA6A
Copy CRC AAAFDA6A
Cannot be verified as accurate (confidence 2) [63074373], AccurateRip returned [0F4C4F60]
Copy OK
Track 10
Filename Z:\Laurindo_Almeida\Outra_Vez\10_-_Carinhoso_(Affectionate).wav
Peak level 82.3 %
Track quality 100.0 %
Test CRC 7B502BC3
Copy CRC 7B502BC3
Cannot be verified as accurate (confidence 2) [CEDF30B6], AccurateRip returned [BDC84803]
Copy OK
Track 11
Filename Z:\Laurindo_Almeida\Outra_Vez\11_-_Jobim_Medley.wav
Peak level 76.0 %
Track quality 100.0 %
Test CRC 6B3D2A03
Copy CRC 6B3D2A03
Cannot be verified as accurate (confidence 2) [8ED72384], AccurateRip returned [121E3E1E]
Copy OK
No tracks could be verified as accurate
You may have a different pressing from the one(s) in the database
No errors occurred
End of status report
 
Содержание индексной карты (.CUE)
REM GENRE Jazz
REM DATE 1992
REM DISCID B50CC70B
REM COMMENT "ExactAudioCopy v0.99pb4"
PERFORMER "Laurindo Almeida"
TITLE "Outra Vez"
FILE "01 - Outra Vez (Once Again).wav" WAVE
TRACK 01 AUDIO
TITLE "Outra Vez (Once Again)"
PERFORMER "Laurindo Almeida"
INDEX 01 00:00:00
FILE "02 - The Jolly Crow.wav" WAVE
TRACK 02 AUDIO
TITLE "The Jolly Crow"
PERFORMER "Laurindo Almeida"
INDEX 01 00:00:00
FILE "03 - Danza Five.wav" WAVE
TRACK 03 AUDIO
TITLE "Danza Five"
PERFORMER "Laurindo Almeida"
INDEX 01 00:00:00
FILE "04 - Blue Skies.wav" WAVE
TRACK 04 AUDIO
TITLE "Blue Skies"
PERFORMER "Laurindo Almeida"
INDEX 01 00:00:00
FILE "05 - Goin Home (from New World Symphony).wav" WAVE
TRACK 05 AUDIO
TITLE "Goin Home (from New World Symphony)"
PERFORMER "Laurindo Almeida"
INDEX 01 00:00:00
FILE "06 - Samba de Break.wav" WAVE
TRACK 06 AUDIO
TITLE "Samba de Break"
PERFORMER "Laurindo Almeida"
INDEX 01 00:00:00
FILE "07 - Beethoven n Monk (Moonlight Sonata n Round Midnight).wav" WAVE
TRACK 07 AUDIO
TITLE "Beethoven n Monk (Moonlight Sonata n Round Midnight)"
PERFORMER "Laurindo Almeida"
INDEX 01 00:00:00
FILE "08 - Escado.wav" WAVE
TRACK 08 AUDIO
TITLE "Escado"
PERFORMER "Laurindo Almeida"
INDEX 01 00:00:00
FILE "09 - Um a Zero (One to Nothing).wav" WAVE
TRACK 09 AUDIO
TITLE "Um a Zero (One to Nothing)"
PERFORMER "Laurindo Almeida"
INDEX 01 00:00:00
FILE "10 - Carinhoso (Affectionate).wav" WAVE
TRACK 10 AUDIO
TITLE "Carinhoso (Affectionate)"
PERFORMER "Laurindo Almeida"
INDEX 01 00:00:00
FILE "11 - Jobim Medley.wav" WAVE
TRACK 11 AUDIO
TITLE "Jobim Medley"
PERFORMER "Laurindo Almeida"
INDEX 01 00:00:00
04:32
503
Нет комментариев. Ваш будет первым!