Поиск

(Brazilian Jazz, Jazz Fusion, Bossa Nova) Deodato - Skyscrapers - 2002 [Compilation], FLAC (tracks+.cue), lossless

(Brazilian Jazz, Jazz Fusion, Bossa Nova) Deodato - Skyscrapers - 2002 [Compilation], FLAC (tracks+.cue), lossless
Треклист:
Eumir Deodato - Skyscrapers
Жанр: Brazilian Jazz, Jazz Fusion, Bossa Nova
Год выпуска диска: 2002
Производитель диска: Irma Casa (IRMA 509563-2)
Тип: Compilation
Аудио кодек: FLAC
Тип рипа: tracks+.cue
Битрейт аудио: lossless
Продолжительность: 35:48
Источник: MusicLover28
Трэклист:
01. Skyscrapers (Deodato) 4:49 (v)
02. Flap (Valle, Valle) 3:18 (v)
03. Rudy's (Deodato) 3:10
04. Soccer Game (Mascarenhas) 2:29
05. The First Stone (Alves, Lago) 3:19
06. Elizeth (Valle, Valle) 3:31
07. The Byrd (Deodato) 1:54 (v)
08. The Gap (Deodato) 3:53
09. Down the Hill (Deodato) 2:57
10. Boy Meets Girl (Deodato) 3:11 (v)
11. Carly and Carole (Deodato) 3:11
(v) indicates AMG Track Pick
 
Состав
Eumir Deodato - Piano, Organ (Hammond), Piano (Electric)
Durval Ferreira - Guitar (Electric)
Ze Menezes - Guitar (12 String Acoustic)
Sergio Barroso - Bass (Electric)
Ivan Conti - Drums
Bebeto - Conga
Phil Bodner - Flute, Sax (Tenor)
Romeo Penque - Flute, Sax (Baritone)
John Frosk, Marvin Stamm - Trumpet
Wayne Andre - Trombone
 
Дополнительная информация
AMG Info
...
The official Eumir Deodato website
...
Wikipedia
AMG Rating: 3,5*
AMG Review by Alex Henderson
In the early '70s, the electric Hammond organ was still getting a lot of exposure thanks to B-3 icons like Jimmy Smith, Charles Earland, Jimmy McGriff, and Jack McDuff. It was a prominent instrument in soul-jazz, and plenty of rock and R&B musicians also believed in the power of the B-3. But in Brazilian jazz and pop circles, the instrument wasn't as popular — some musicians believed that the B-3 wasn't right for the samba beat. Eumir Deodato, however, didn't feel that way. Although the Brazilian musician/composer/producer was best known for acoustic piano and electric keyboard playing, he could handle the Hammond organ and saw no reason why it shouldn't be used in a Brazilian setting. The Hammond organ, in fact, is an integral part of what Deodato does on this 1972 project, which was originally released on LP in Brazil as Os Catedraticos '73 and was reissued on CD as Skyscrapers in 2002. Deodato doesn't play the organ exclusively on this album — he is also heard on electric and acoustic piano — but the organ is quite prominent and proves to be a major asset. Much of the material has a very congenial, good-natured quality, and the sound that Deodato achieves on Skyscrapers ends up sounding like a combination of Brazilian jazz-pop/fusion and Earland's more mellow grooves. Skyscrapers doesn't get into the sort of ultra-funky grits-and-gravy jams that Earland was a master of — Deodato doesn't perform any instrumental versions of Sly & the Family Stone gems — but his organ solos do shore an awareness of Jimmy Smith (who, of course, was Earland's foundation). The Hammond organ isn't the first instrument that one mentions during a discussion of Brazilian music, but it definitely works well for Deodato on Skyscrapers.
...
Wikipedia
Eumir Deodato (full name Eumir Deodato de Almeida, 22 June 1943, Rio de Janeiro, is a Brazilian musician, record producer and arranger, primarily based in the jazz realm but who historically has been known for eclectic melding of big band and combo jazz with varied elements of rock/pop, R&B/funk, Brazilian/Latin, and symphonic or orchestral music. Mainly, his records can be categorized as pop/jazz or crossover jazz. His successes as an original artist (keyboards) occurred mainly in the 1970s. Since then, he has produced or arranged music in more than 500 albums for acts ranging from Kool and the Gang to Bjork, Christophe and k.d. lang.
...
Эумир Деодато (Eumir Deodato, род. 22.06.1943) - бразильский джазовый музыкант, продюсер, аранжировщик.
В основном исполняет поп-джаз или кроссовер-джаз. Как исполнитель (клавишник) известность приобрел в 1970-е годы. Является продюсером более 500 альбомов различных исполнителей, например Бьорк.
 
EAC log
Exact Audio Copy V0.99 prebeta 5 from 4. May 2009
EAC extraction logfile from 12. May 2010, 10:29
Deodato / Skyscrapers
Used drive : ATAPI iHAS224 A Adapter: 3 ID: 0
Read mode : Secure
Utilize accurate stream : Yes
Defeat audio cache : Yes
Make use of C2 pointers : No
Read offset correction : 6
Overread into Lead-In and Lead-Out : No
Fill up missing offset samples with silence : Yes
Delete leading and trailing silent blocks : No
Null samples used in CRC calculations : Yes
Used interface : Native Win32 interface for Win NT & 2000
Gap handling : Appended to previous track
Used output format : User Defined Encoder
Selected bitrate : 320 kBit/s
Quality : High
Add ID3 tag : No
Command line compressor : C:\Program Files (x86)\Exact Audio Copy\Flac\flac.exe
Additional command line options : -V -8 -T "artist=%a" -T "title=%t" -T "album=%g" -T "date=%y" -T "tracknumber=%n" -T "genre=%m" %s
TOC of the extracted CD
Track | Start | Length | Start sector | End sector
---------------------------------------------------------
1 | 0:00.00 | 4:49.16 | 0 | 21690
2 | 4:49.16 | 3:18.63 | 21691 | 36603
3 | 8:08.04 | 3:10.03 | 36604 | 50856
4 | 11:18.07 | 2:29.62 | 50857 | 62093
5 | 13:47.69 | 3:19.49 | 62094 | 77067
6 | 17:07.43 | 3:31.43 | 77068 | 92935
7 | 20:39.11 | 1:54.37 | 92936 | 101522
8 | 22:33.48 | 3:53.15 | 101523 | 119012
9 | 26:26.63 | 2:57.26 | 119013 | 132313
10 | 29:24.14 | 3:11.32 | 132314 | 146670
11 | 32:35.46 | 3:11.09 | 146671 | 161004
Track 1
Filename C:\Exact Audio Copy\Deodato - 1998 - Skyscrapers\01 - Skyscrapers.wav
Pre-gap length 0:00:02.00
Peak level 98.4 %
Track quality 99.9 %
Test CRC 2E8CBEC9
Copy CRC 2E8CBEC9
Accurately ripped (confidence 1) [2A153326]
Copy OK
Track 2
Filename C:\Exact Audio Copy\Deodato - 1998 - Skyscrapers\02 - Flap.wav
Pre-gap length 0:00:01.00
Peak level 98.8 %
Track quality 100.0 %
Test CRC 56BC1837
Copy CRC 56BC1837
Accurately ripped (confidence 1) [472A7E6E]
Copy OK
Track 3
Filename C:\Exact Audio Copy\Deodato - 1998 - Skyscrapers\03 - Rudy's.wav
Pre-gap length 0:00:01.49
Peak level 98.8 %
Track quality 100.0 %
Test CRC 816186D4
Copy CRC 816186D4
Accurately ripped (confidence 1) [60803DD9]
Copy OK
Track 4
Filename C:\Exact Audio Copy\Deodato - 1998 - Skyscrapers\04 - Soccer Game.wav
Pre-gap length 0:00:01.00
Peak level 98.8 %
Track quality 100.0 %
Test CRC 3FC141D7
Copy CRC 3FC141D7
Accurately ripped (confidence 1) [A081E6DC]
Copy OK
Track 5
Filename C:\Exact Audio Copy\Deodato - 1998 - Skyscrapers\05 - First Stone.wav
Pre-gap length 0:00:01.30
Peak level 98.9 %
Track quality 100.0 %
Test CRC 763E8B55
Copy CRC 763E8B55
Accurately ripped (confidence 1) [38E44FF4]
Copy OK
Track 6
Filename C:\Exact Audio Copy\Deodato - 1998 - Skyscrapers\06 - Elizeth.wav
Pre-gap length 0:00:01.00
Peak level 98.9 %
Track quality 100.0 %
Test CRC 98187629
Copy CRC 98187629
Accurately ripped (confidence 1) [3270DD63]
Copy OK
Track 7
Filename C:\Exact Audio Copy\Deodato - 1998 - Skyscrapers\07 - Byrd.wav
Pre-gap length 0:00:01.00
Peak level 98.9 %
Track quality 100.0 %
Test CRC 17030F1B
Copy CRC 17030F1B
Accurately ripped (confidence 1) [05111F78]
Copy OK
Track 8
Filename C:\Exact Audio Copy\Deodato - 1998 - Skyscrapers\08 - Gap.wav
Pre-gap length 0:00:01.30
Peak level 98.9 %
Track quality 100.0 %
Test CRC 5A86D896
Copy CRC 5A86D896
Accurately ripped (confidence 1) [BCF5D843]
Copy OK
Track 9
Filename C:\Exact Audio Copy\Deodato - 1998 - Skyscrapers\09 - Down the Hill.wav
Pre-gap length 0:00:01.00
Peak level 98.9 %
Track quality 100.0 %
Test CRC EEAD884C
Copy CRC EEAD884C
Accurately ripped (confidence 1) [0FB2DEA8]
Copy OK
Track 10
Filename C:\Exact Audio Copy\Deodato - 1998 - Skyscrapers\10 - Boy Meets Girl.wav
Pre-gap length 0:00:01.00
Peak level 98.9 %
Track quality 100.0 %
Test CRC 290B91B0
Copy CRC 290B91B0
Accurately ripped (confidence 1) [9063C8B1]
Copy OK
Track 11
Filename C:\Exact Audio Copy\Deodato - 1998 - Skyscrapers\11 - Carly and Carole.wav
Pre-gap length 0:00:01.00
Peak level 98.8 %
Track quality 100.0 %
Test CRC 6F85BBB7
Copy CRC 6F85BBB7
Accurately ripped (confidence 1) [C79DA882]
Copy OK
All tracks accurately ripped
No errors occurred
End of status report
 
Cue
REM GENRE "Acid Jazz"
REM DATE 1998
REM DISCID 9E08620B
REM COMMENT "ExactAudioCopy v0.99pb5"
FILE "Deodato - 1998 - Skyscrapers\01 - Skyscrapers.wav" WAVE
TRACK 01 AUDIO
INDEX 01 00:00:00
TRACK 02 AUDIO
INDEX 00 04:48:16
FILE "Deodato - 1998 - Skyscrapers\02 - Flap.wav" WAVE
INDEX 01 00:00:00
TRACK 03 AUDIO
INDEX 00 03:17:26
FILE "Deodato - 1998 - Skyscrapers\03 - Rudy's.wav" WAVE
INDEX 01 00:00:00
TRACK 04 AUDIO
INDEX 00 03:09:03
FILE "Deodato - 1998 - Skyscrapers\04 - Soccer Game.wav" WAVE
INDEX 01 00:00:00
TRACK 05 AUDIO
INDEX 00 02:28:39
FILE "Deodato - 1998 - Skyscrapers\05 - First Stone.wav" WAVE
INDEX 01 00:00:00
TRACK 06 AUDIO
INDEX 00 03:18:49
FILE "Deodato - 1998 - Skyscrapers\06 - Elizeth.wav" WAVE
INDEX 01 00:00:00
TRACK 07 AUDIO
INDEX 00 03:30:43
FILE "Deodato - 1998 - Skyscrapers\07 - Byrd.wav" WAVE
INDEX 01 00:00:00
TRACK 08 AUDIO
INDEX 00 01:53:14
FILE "Deodato - 1998 - Skyscrapers\08 - Gap.wav" WAVE
INDEX 01 00:00:00
TRACK 09 AUDIO
INDEX 00 03:52:15
FILE "Deodato - 1998 - Skyscrapers\09 - Down the Hill.wav" WAVE
INDEX 01 00:00:00
TRACK 10 AUDIO
INDEX 00 02:56:26
FILE "Deodato - 1998 - Skyscrapers\10 - Boy Meets Girl.wav" WAVE
INDEX 01 00:00:00
TRACK 11 AUDIO
INDEX 00 03:10:32
FILE "Deodato - 1998 - Skyscrapers\11 - Carly and Carole.wav" WAVE
INDEX 01 00:00:00
15:49
429
Нет комментариев. Ваш будет первым!