Поиск

(Brazilian jazz - funk) Azymuth - Live At The Copacabana Palace - 2003, FLAC (tracks+.cue), lossless

(Brazilian jazz - funk) Azymuth - Live At The Copacabana Palace - 2003, FLAC (tracks+.cue), lossless
Треклист:
Azymuth - Live At The Copacabana Palace (2003)
Жанр: Brazilian jazz - funk
Дата записи: live at the Golden Rooom, Copacabana Palace Hotel, Rio de Janeiro, March 1979
Дата выпуска: Jul 21, 2003
Производитель диска, страна: Snapper
Страна исполнителя: Brazil
Тип: Live, compilation
Аудио кодек: FLAC
Тип рипа: (tracks + .cue)
Битрейт аудио: lossless
Продолжительность: 43:32
Источник: torrent
Риппер: Господин S
Трэклист:
1. Jazz Carnival
2. Partido Alto
3. Light As A Feather
4. Dona Olimpia
5. Montreux
6. Existe Isto (This Exists)
7. Voo Sobre O Horizonte (Fly Over The Horizon)
8. Jazz Carnival (Short Version)
Состав:
Jose Roberto Bertrami: Keyboards
Alexandre Malheiros: bass
Ivan COnte "Mamao": drums
Aleuda: percussion, vocal
Мои раздачи на треккере - jazz / fusion / prog
 
Несколько слов на английском - azimuth.calabashmusic.com
Rio de Janeiro, 1979. The lounges of Copacabana Palace, one of the most fashionable hotels of the day are swept by electronics sound, rare in the land of macumba. The Azymuth group are at the cutting adge of modern fusion in a latin american context. Thousand of the more fortunate young people dance to jazz carnival. Azymuth restore the massive popularity of pop music to jazz. Released in 1979.
 
Folder content
01 - Jazz Carnival.flac
02 - Partido Alto.flac
03 - Light As A Feather.flac
04 - Dona Olimpia.flac
05 - Montreux.flac
06 - Existe Isto (This Exists).flac
07 - Voo Sobre O Horizonte (Fly Over The Horizon).flac
08 - Jazz Carnival (Short Version).flac
Artwork
Azymuth - Live At The Copacabana Palace.m3u
Live At The Copacabana Palace.cue
Live At The Copacabana Palace.log
tau.log
Thumb.jpg
Titles.jpg
Artwork\Cd.png
Artwork\Front.png
Artwork\Inside.png
 
EAC log
EAC extraction logfile from 9. February 2007, 0:24 for CD
Azymuth / Live At The Copacabana Palace
Used drive : PLEXTOR DVDR PX-716A Adapter: 1 ID: 0
Read mode : Secure with NO C2, accurate stream, disable cache
Read offset correction : 30
Overread into Lead-In and Lead-Out : No
Used output format : C:\Programmi\Exact Audio Copy\flac-1.1.2-win\bin\flac.exe (User Defined Encoder)
32 kBit/s
Additional command line options : -8 -V %s
Other options :
Fill up missing offset samples with silence : Yes
Delete leading and trailing silent blocks : No
Native Win32 interface for Win NT & 2000
Track 1
Filename F:\[MyRip]\01 - Jazz Carnival.wav
Pre-gap length 0:00:02.00
Peak level 68.6 %
Track quality 100.0 %
Test CRC A0400E46
Copy CRC A0400E46
Copy OK
Track 2
Filename F:\[MyRip]\02 - Partido Alto.wav
Pre-gap length 0:00:01.00
Peak level 79.3 %
Track quality 100.0 %
Test CRC D3B67120
Copy CRC D3B67120
Copy OK
Track 3
Filename F:\[MyRip]\03 - Light As A Feather.wav
Pre-gap length 0:00:01.00
Peak level 60.9 %
Track quality 99.9 %
Test CRC 2F896A23
Copy CRC 2F896A23
Copy OK
Track 4
Filename F:\[MyRip]\04 - Dona Olimpia.wav
Pre-gap length 0:00:01.00
Peak level 99.8 %
Track quality 100.0 %
Test CRC 5E6AAB90
Copy CRC 5E6AAB90
Copy OK
Track 5
Filename F:\[MyRip]\05 - Montreux.wav
Pre-gap length 0:00:01.00
Peak level 75.1 %
Track quality 100.0 %
Test CRC 9743429C
Copy CRC 9743429C
Copy OK
Track 6
Filename F:\[MyRip]\06 - Existe Isto (This Exists).wav
Pre-gap length 0:00:01.00
Peak level 58.1 %
Track quality 100.0 %
Test CRC CE8493BA
Copy CRC CE8493BA
Copy OK
Track 7
Filename F:\[MyRip]\07 - Voo Sobre O Horizonte (Fly Over The Horizon).wav
Pre-gap length 0:00:01.00
Peak level 68.4 %
Track quality 100.0 %
Test CRC BC933C0F
Copy CRC BC933C0F
Copy OK
Track 8
Filename F:\[MyRip]\08 - Jazz Carnival (Short Version).wav
Pre-gap length 0:00:01.00
Peak level 69.6 %
Track quality 100.0 %
Test CRC 8332FD5A
Copy CRC 8332FD5A
Copy OK
No errors occured
End of status report
------------------------------------------------------------
EAC extraction logfile from 9. February 2007, 0:24 for CD
Azymuth / Live At The Copacabana Palace
Used drive : PLEXTOR DVDR PX-716A Adapter: 1 ID: 0
Read mode : Secure with NO C2, accurate stream, disable cache
Read offset correction : 30
Overread into Lead-In and Lead-Out : No
Used output format : C:\Programmi\Exact Audio Copy\flac-1.1.2-win\bin\flac.exe (User Defined Encoder)
32 kBit/s
Additional command line options : -8 -V %s
Other options :
Fill up missing offset samples with silence : Yes
Delete leading and trailing silent blocks : No
Native Win32 interface for Win NT & 2000
Track 1
Filename F:\[MyRip]\01 - Jazz Carnival.wav
Pre-gap length 0:00:02.00
Peak level 68.6 %
Track quality 100.0 %
Test CRC A0400E46
Copy CRC A0400E46
Copy OK
Track 2
Filename F:\[MyRip]\02 - Partido Alto.wav
Pre-gap length 0:00:01.00
Peak level 79.3 %
Track quality 100.0 %
Test CRC D3B67120
Copy CRC D3B67120
Copy OK
Track 3
Filename F:\[MyRip]\03 - Light As A Feather.wav
Pre-gap length 0:00:01.00
Peak level 60.9 %
Track quality 99.9 %
Test CRC 2F896A23
Copy CRC 2F896A23
Copy OK
Track 4
Filename F:\[MyRip]\04 - Dona Olimpia.wav
Pre-gap length 0:00:01.00
Peak level 99.8 %
Track quality 100.0 %
Test CRC 5E6AAB90
Copy CRC 5E6AAB90
Copy OK
Track 5
Filename F:\[MyRip]\05 - Montreux.wav
Pre-gap length 0:00:01.00
Peak level 75.1 %
Track quality 100.0 %
Test CRC 9743429C
Copy CRC 9743429C
Copy OK
Track 6
Filename F:\[MyRip]\06 - Existe Isto (This Exists).wav
Pre-gap length 0:00:01.00
Peak level 58.1 %
Track quality 100.0 %
Test CRC CE8493BA
Copy CRC CE8493BA
Copy OK
Track 7
Filename F:\[MyRip]\07 - Voo Sobre O Horizonte (Fly Over The Horizon).wav
Pre-gap length 0:00:01.00
Peak level 68.4 %
Track quality 100.0 %
Test CRC BC933C0F
Copy CRC BC933C0F
Copy OK
Track 8
Filename F:\[MyRip]\08 - Jazz Carnival (Short Version).wav
Pre-gap length 0:00:01.00
Peak level 69.6 %
Track quality 100.0 %
Test CRC 8332FD5A
Copy CRC 8332FD5A
Copy OK
No errors occured
End of status report
 
auCDtect log
2966680329 111327260 01 - Jazz Carnival.wav
3347516801 43232156 02 - Partido Alto.wav
144814489 72284060 03 - Light As A Feather.wav
65631261 30434924 04 - Dona Olimpia.wav
898328005 38469356 05 - Montreux.wav
676180227 48310124 06 - Existe Isto (This Exists).wav
1546520631 76409468 07 - Voo Sobre O Horizonte (Fly Over The Horizon).wav
1599531155 40866044 08 - Jazz Carnival (Short Version).wav
auCDtect: CD records authenticity detector, version 0.8.2
Copyright (c) 2004 Oleg Berngardt. All rights reserved.
Copyright (c) 2004 Alexander Djourik. All rights reserved.
------------------------------------------------------------
Processing file: [01 - Jazz Carnival.wav]
------------------------------------------------------------
This track looks like CDDA with probability 100%
------------------------------------------------------------
Processing file: [02 - Partido Alto.wav]
------------------------------------------------------------
This track looks like CDDA with probability 100%
------------------------------------------------------------
Processing file: [03 - Light As A Feather.wav]
------------------------------------------------------------
This track looks like CDDA with probability 99%
------------------------------------------------------------
Processing file: [04 - Dona Olimpia.wav]
------------------------------------------------------------
This track looks like CDDA with probability 100%
------------------------------------------------------------
Processing file: [05 - Montreux.wav]
------------------------------------------------------------
This track looks like CDDA with probability 100%
------------------------------------------------------------
Processing file: [06 - Existe Isto (This Exists).wav]
------------------------------------------------------------
This track looks like CDDA with probability 99%
------------------------------------------------------------
Processing file: [07 - Voo Sobre O Horizonte (Fly Over The Horizon).wav]
------------------------------------------------------------
This track looks like CDDA with probability 100%
------------------------------------------------------------
Processing file: [08 - Jazz Carnival (Short Version).wav]
------------------------------------------------------------
This track looks like CDDA with probability 100%
------------------------------------------------------------
Final Conclusion:
------------------------------------------------------------
These tracks looks like CDDA with probability 100%
Я не сидирую все свои раздачи подолгу, только новые (до 3х первых сидов)
Предлагаю скачавшим максимально долго оставаться на раздаче - весь рейтинг будет ваш
Я вернусь, если меня попросят в топике или в ПМ
04:07
537
Нет комментариев. Ваш будет первым!