Поиск

(Brazilian Jazz, Contemporary, Latin Jazz, World Fusion, Piano , Instrumental) Diane Marino - On the Street Where You Live - 2004

(Brazilian Jazz, Contemporary, Latin Jazz, World Fusion, Piano , Instrumental) Diane Marino - On the Street Where You Live - 2004
Треклист:
Diane Marino - On the Street Where You Live
Жанр: Brazilian Jazz, Contemporary, Latin Jazz, World Fusion, Piano , Instrumental
Год выпуска диска: 2004
Производитель диска: USA \ Label:M&M
Продолжительность: 55:43
Трэклист:
1 Moanin' 6:29
2 O Amor Em Paz (Love in Peace) 5:36
3 I Concentrate on You 2:48
4 On the Street Where You Live 7:18
5 Toucans Dance 5:03
6 I'm Glad There Is You 6:00
7 What Now My Love 4:11
8 Retrato Em Branco E Preto (Picture in Black and White) 3:43
9 Bernie's Tune 4:29
10 Só Danço Samba (Jazz 'N' Samba) 4:24
11 Once I Loved (English Version of O Amor Em Paz) 5:36
Дополнительная информация: Оригинальным тембром голоса обладает Diane Marino.Прослушав ее альбом Just Groovin' мне захотелось еще чтото послушать. И вот.....
Этот альбом сделан немножко в другом стиле.Но голос тот же
 
отчёт ЕАС
Exact Audio Copy V0.99 prebeta 4 from 23. January 2008
EAC extraction logfile from 8. February 2010, 20:07
Diane Marino Quartet / On the Street Where You Live
Used drive : TSSTcorpCDDVDW SH-S202J Adapter: 1 ID: 1
Read mode : Secure
Utilize accurate stream : Yes
Defeat audio cache : Yes
Make use of C2 pointers : No
Read offset correction : 6
Overread into Lead-In and Lead-Out : No
Fill up missing offset samples with silence : Yes
Delete leading and trailing silent blocks : No
Null samples used in CRC calculations : Yes
Used interface : Native Win32 interface for Win NT & 2000
Used output format : Internal WAV Routines
Sample format : 44.100 Hz; 16 Bit; Stereo
TOC of the extracted CD
Track | Start | Length | Start sector | End sector
---------------------------------------------------------
1 | 0:00.00 | 6:29.30 | 0 | 29204
2 | 6:29.30 | 5:36.64 | 29205 | 54468
3 | 12:06.19 | 2:48.51 | 54469 | 67119
4 | 14:54.70 | 7:18.16 | 67120 | 99985
5 | 22:13.11 | 5:03.71 | 99986 | 122781
6 | 27:17.07 | 6:00.55 | 122782 | 149836
7 | 33:17.62 | 4:11.53 | 149837 | 168714
8 | 37:29.40 | 3:43.05 | 168715 | 185444
9 | 41:12.45 | 4:29.12 | 185445 | 205631
10 | 45:41.57 | 4:24.62 | 205632 | 225493
11 | 50:06.44 | 5:36.65 | 225494 | 250758
Range status and errors
Selected range
Filename E:\РОЗДАЧА\Diane Marino Quartet - On the Street Where You Live.wav
Peak level 95.8 %
Range quality 100.0 %
Test CRC 72559A7C
Copy CRC 72559A7C
Copy OK
No errors occurred
AccurateRip summary
Track 1 not present in database
Track 2 not present in database
Track 3 not present in database
Track 4 not present in database
Track 5 not present in database
Track 6 not present in database
Track 7 not present in database
Track 8 not present in database
Track 9 not present in database
Track 10 not present in database
Track 11 not present in database
None of the tracks are present in the AccurateRip database
End of status report
 
Foto
По всем вопросам пишите личное сообщение пользователю M0p94ok.
11:17
269
Нет комментариев. Ваш будет первым!