Поиск

(Brazilian Jazz, Contemporary Jazz) Andy Summers e Victor Biglione - Splendid Brazil - 2005, WAVPack (image+.cue), lossless

(Brazilian Jazz, Contemporary Jazz) Andy Summers e Victor Biglione - Splendid Brazil - 2005, WAVPack (image+.cue), lossless
Треклист:
Andy Summers e Victor Biglione - Splendid Brazil
Жанр: Brazilian Jazz, Contemporary Jazz
Год выпуска диска: 2005
Производитель диска: Brazil
Аудио кодек: WAVPack
Тип рипа: image+.cue
Битрейт аудио: lossless
Продолжительность: 42:32
Трэклист:
1 Double Rainbow 4:51 Composed by: Jobim
2 Lamento 4:24 Composed by: Jobim
3 Campina Grande 3:23 Composed by: Valle
4 Zingaro 5:12 Composed by: Buarque, Jobim
5 Casa Forte 3:53 Composed by: Lobo
6 As Rosas Nao Falar 3:26 Composed by: Cartola
7 Vento Bravo 4:21 Composed by: Lobo
8 Useless Landscape 5:13 Composed by: Jobim
9 Brazilliance 3:07 Composed by: Almeida
10 Fotografia 1:51 Composed by: Jobim
11 O Ovo 3:00 Composed by: Paschoal
12 O Ovo (Reprise) 0:22 Composed by: Paschoal
Рип от supang.
 
EAC extraction logfile
Exact Audio Copy V0.99 prebeta 5 from 4. May 2009
EAC extraction logfile from 31. July 2009, 10:31
Andy Summers e Victor Biglione / Splendid Brazil
Used drive : PLEXTOR CD-R PREMIUM2 Adapter: 1 ID: 0
Read mode : Secure
Utilize accurate stream : Yes
Defeat audio cache : Yes
Make use of C2 pointers : No
Read offset correction : 30
Overread into Lead-In and Lead-Out : Yes
Fill up missing offset samples with silence : Yes
Delete leading and trailing silent blocks : No
Null samples used in CRC calculations : Yes
Used interface : Native Win32 interface for Win NT & 2000
Used output format : Internal WAV Routines
Sample format : 44.100 Hz; 16 Bit; Stereo
TOC of the extracted CD
Track | Start | Length | Start sector | End sector
---------------------------------------------------------
1 | 0:00.00 | 4:34.15 | 0 | 20564
2 | 4:34.15 | 1:50.36 | 20565 | 28850
3 | 6:24.51 | 3:44.42 | 28851 | 45692
4 | 10:09.18 | 5:06.09 | 45693 | 68651
5 | 15:15.27 | 4:20.74 | 68652 | 88225
6 | 19:36.26 | 3:28.24 | 88226 | 103849
7 | 23:04.50 | 3:23.66 | 103850 | 119140
8 | 26:28.41 | 5:10.08 | 119141 | 142398
9 | 31:38.49 | 3:09.42 | 142399 | 156615
10 | 34:48.16 | 4:24.15 | 156616 | 176430
11 | 39:12.31 | 3:18.36 | 176431 | 191316
Range status and errors
Selected range
Filename C:\DAE\Andy Summers & Victor Biglione - Splendid Brazil\Andy Summers e Victor Biglione - Splendid Brazil.wav
Peak level 100.0 %
Range quality 99.9 %
Test CRC 3863CB5E
Copy CRC 3863CB5E
Copy OK
No errors occurred
AccurateRip summary
Track 1 not present in database
Track 2 not present in database
Track 3 not present in database
Track 4 not present in database
Track 5 not present in database
Track 6 not present in database
Track 7 not present in database
Track 8 not present in database
Track 9 not present in database
Track 10 not present in database
Track 11 not present in database
None of the tracks are present in the AccurateRip database
End of status report
 
Audiochecker logfile
AUDIOCHECKER v2.0 beta (build 457) - by Dester - opdester@freemail.hu
~~~~~~~~~~~~~~~~~~~~~~~~~~~~~~~~~~
Started at: вторник, 11. 08. 2009. - 10:24.31
1 file found
1 -===- D:\TEMP\Images\Andy Summers e Victor Biglione - Splendid Brazil\Andy Summers e Victor Biglione - Splendid Brazil.wav
Conclusion: this track is CDDA with probability 100%
Finished at: вторник, 11. 08. 2009. - 10:27.44 (operation time: 0:03.13)
Достойная совместная работа двух гитаристов, английского - Энди Саммерса, поигравшего в своё время со Стингом в Police и с Робертом Фриппом (но не в King Crimson) и бразильского - Виктора Биглионе, подвизающегося во фьюжн.
Превью здесь. Приятных впечатлений!
По всем вопросам пишите личное сообщение пользователю M0p94ok.
07:22
226
Нет комментариев. Ваш будет первым!