Поиск

(Brazilian Jazz, Bossa Nova, Vocal Jazz) Nelson Angelo & Joyce - Nelson Angelo e Joyce - 1972 (2002), FLAC (tracks+.cue), lossless

(Brazilian Jazz, Bossa Nova, Vocal Jazz) Nelson Angelo & Joyce - Nelson Angelo e Joyce - 1972 (2002), FLAC (tracks+.cue), lossless
Треклист:
Nelson Angelo & Joyce - Nelson Angelo e Joyce
Жанр: Brazilian Jazz, Bossa Nova, Vocal Jazz
Год издания: 1972 (2002)
Издатель (лейбл): EMI
Номер по каталогу: 542288 2
Страна: Бразилия
Аудиокодек: FLAC (*.flac)
Тип рипа: tracks+.cue
Битрейт аудио: lossless
Продолжительность: 30:08
Источник (релизер): Velani (what)
Наличие сканов в содержимом раздачи: нет
Треклист:
01. Um gosto de fruta (Angelo) - 2:50
02. Hotel universo (Angelo-Bastos) - 2:12
03. Sete cachorros (Angelo) - 2:43
04. Linda (Angelo) - 1:49
05. Comunhao (Angelo) - 3:07
06. Ponte nova (Angelo) - 2:47
07. The man from the avenue (Angelo) - 0:22
08. Tiro cruzado (Angelo-Borges) - 2:17
09. Pessoas (Angelo) - 2:39
10. Meus vinte anos (Joyce-Bastos) - 2:17
11. Mantra (Angelo) - 2:15
12. Vivo ou morto (Caymmi-Padua) - 2:23
13. Tudo comeca de novo (Angelo) - 2:27
 
Лог создания рипа
Exact Audio Copy V0.99 prebeta 5 from 4. May 2009
EAC extraction logfile from 17. January 2011, 19:12
Joyce / Nelson Angelo e Joyce
Used drive : SlimtypeDVDRW SSW-8015S Adapter: 1 ID: 0
Read mode : Secure
Utilize accurate stream : Yes
Defeat audio cache : Yes
Make use of C2 pointers : No
Read offset correction : 594
Overread into Lead-In and Lead-Out : No
Fill up missing offset samples with silence : Yes
Delete leading and trailing silent blocks : No
Null samples used in CRC calculations : Yes
Used interface : Native Win32 interface for Win NT & 2000
Gap handling : Appended to previous track
Used output format : User Defined Encoder
Selected bitrate : 768 kBit/s
Quality : High
Add ID3 tag : No
Command line compressor : C:\Program Files\Exact Audio Copy\FLAC\FLAC.EXE
Additional command line options : -V -8 -T "artist=%a" -T "title=%t" -T "album=%g" -T "date=%y" -T "tracknumber=%n" -T "genre=%m" %s
TOC of the extracted CD
Track | Start | Length | Start sector | End sector
---------------------------------------------------------
1 | 0:00.00 | 2:49.40 | 0 | 12714
2 | 2:49.40 | 2:12.27 | 12715 | 22641
3 | 5:01.67 | 2:43.08 | 22642 | 34874
4 | 7:45.00 | 1:49.25 | 34875 | 43074
5 | 9:34.25 | 3:07.20 | 43075 | 57119
6 | 12:41.45 | 2:46.67 | 57120 | 69636
7 | 15:28.37 | 0:22.03 | 69637 | 71289
8 | 15:50.40 | 2:17.07 | 71290 | 81571
9 | 18:07.47 | 2:38.38 | 81572 | 93459
10 | 20:46.10 | 2:17.17 | 93460 | 103751
11 | 23:03.27 | 2:15.25 | 103752 | 113901
12 | 25:18.52 | 2:23.35 | 113902 | 124661
13 | 27:42.12 | 2:26.58 | 124662 | 135669
Track 1
Filename C:\Users\LG\Downloads\Torrent\Seeding\Joyce - 1972 - Nelson Angelo e Joyce [FLAC]\01 - Um gosto de fruta.wav
Pre-gap length 0:00:02.00
Peak level 94.4 %
Track quality 100.0 %
Test CRC 4D90C215
Copy CRC 4D90C215
Accurately ripped (confidence 2) [A0942C97]
Copy OK
Track 2
Filename C:\Users\LG\Downloads\Torrent\Seeding\Joyce - 1972 - Nelson Angelo e Joyce [FLAC]\02 - Hotel Universo.wav
Peak level 98.1 %
Track quality 100.0 %
Test CRC 26BAF2A6
Copy CRC 26BAF2A6
Accurately ripped (confidence 2) [5982E4D7]
Copy OK
Track 3
Filename C:\Users\LG\Downloads\Torrent\Seeding\Joyce - 1972 - Nelson Angelo e Joyce [FLAC]\03 - Sete cachorros.wav
Peak level 98.6 %
Track quality 100.0 %
Test CRC 8C9AAFF0
Copy CRC 8C9AAFF0
Accurately ripped (confidence 2) [41CAF842]
Copy OK
Track 4
Filename C:\Users\LG\Downloads\Torrent\Seeding\Joyce - 1972 - Nelson Angelo e Joyce [FLAC]\04 - Linda.wav
Peak level 100.0 %
Track quality 100.0 %
Test CRC 6CBC5582
Copy CRC 6CBC5582
Accurately ripped (confidence 2) [C0509959]
Copy OK
Track 5
Filename C:\Users\LG\Downloads\Torrent\Seeding\Joyce - 1972 - Nelson Angelo e Joyce [FLAC]\05 - Comunhгo.wav
Peak level 88.7 %
Track quality 99.9 %
Test CRC 3DB20EC2
Copy CRC 3DB20EC2
Accurately ripped (confidence 2) [1BA33F95]
Copy OK
Track 6
Filename C:\Users\LG\Downloads\Torrent\Seeding\Joyce - 1972 - Nelson Angelo e Joyce [FLAC]\06 - Ponte nova.wav
Peak level 95.9 %
Track quality 100.0 %
Test CRC 8073134D
Copy CRC 8073134D
Accurately ripped (confidence 2) [FB583D87]
Copy OK
Track 7
Filename C:\Users\LG\Downloads\Torrent\Seeding\Joyce - 1972 - Nelson Angelo e Joyce [FLAC]\07 - The man from the avenue.wav
Peak level 88.5 %
Track quality 100.0 %
Test CRC 2862D1BC
Copy CRC 2862D1BC
Accurately ripped (confidence 2) [119D82C6]
Copy OK
Track 8
Filename C:\Users\LG\Downloads\Torrent\Seeding\Joyce - 1972 - Nelson Angelo e Joyce [FLAC]\08 - Tiro cruzado.wav
Peak level 100.0 %
Track quality 100.0 %
Test CRC 9FA455BC
Copy CRC 9FA455BC
Accurately ripped (confidence 2) [B6F8AA60]
Copy OK
Track 9
Filename C:\Users\LG\Downloads\Torrent\Seeding\Joyce - 1972 - Nelson Angelo e Joyce [FLAC]\09 - Pessoas.wav
Peak level 97.5 %
Track quality 100.0 %
Test CRC A7545C1A
Copy CRC A7545C1A
Accurately ripped (confidence 2) [2830584E]
Copy OK
Track 10
Filename C:\Users\LG\Downloads\Torrent\Seeding\Joyce - 1972 - Nelson Angelo e Joyce [FLAC]\10 - Meus vinte anos.wav
Peak level 98.0 %
Track quality 100.0 %
Test CRC 2FCF525D
Copy CRC 2FCF525D
Accurately ripped (confidence 2) [B0768116]
Copy OK
Track 11
Filename C:\Users\LG\Downloads\Torrent\Seeding\Joyce - 1972 - Nelson Angelo e Joyce [FLAC]\11 - Mantra.wav
Peak level 100.0 %
Track quality 100.0 %
Test CRC 135AD20F
Copy CRC 135AD20F
Track not present in AccurateRip database
Copy OK
Track 12
Filename C:\Users\LG\Downloads\Torrent\Seeding\Joyce - 1972 - Nelson Angelo e Joyce [FLAC]\12 - Vivo ou morto.wav
Peak level 97.0 %
Track quality 99.9 %
Test CRC 65793863
Copy CRC 65793863
Track not present in AccurateRip database
Copy OK
Track 13
Filename C:\Users\LG\Downloads\Torrent\Seeding\Joyce - 1972 - Nelson Angelo e Joyce [FLAC]\13 - Tudo comeзa de novo.wav
Peak level 96.1 %
Track quality 100.0 %
Test CRC 6ADCC0A5
Copy CRC 6ADCC0A5
Track not present in AccurateRip database
Copy OK
10 track(s) accurately ripped
3 track(s) not present in the AccurateRip database
Some tracks could not be verified as accurate
No errors occurred
End of status report
 
Содержание индексной карты (.CUE)
REM GENRE Jazz
REM DATE 1972
REM DISCID AB07100D
REM COMMENT "ExactAudioCopy v0.99pb5"
PERFORMER "Nelson Angelo & Joyce"
TITLE "Nelson Angelo e Joyce"
FILE "01 - Um gosto de fruta.wav" WAVE
TRACK 01 AUDIO
TITLE "Um gosto de fruta"
PERFORMER "Nelson Angelo & Joyce"
INDEX 01 00:00:00
FILE "02 - Hotel universo.wav" WAVE
TRACK 02 AUDIO
TITLE "Hotel universo"
PERFORMER "Nelson Angelo & Joyce"
INDEX 01 00:00:00
FILE "03 - Sete cachorros.wav" WAVE
TRACK 03 AUDIO
TITLE "Sete cachorros"
PERFORMER "Nelson Angelo & Joyce"
INDEX 01 00:00:00
FILE "04 - Linda.wav" WAVE
TRACK 04 AUDIO
TITLE "Linda"
PERFORMER "Nelson Angelo & Joyce"
INDEX 01 00:00:00
FILE "05 - Comunhao.wav" WAVE
TRACK 05 AUDIO
TITLE "Comunhao"
PERFORMER "Nelson Angelo & Joyce"
INDEX 01 00:00:00
FILE "06 - Ponte nova.wav" WAVE
TRACK 06 AUDIO
TITLE "Ponte nova"
PERFORMER "Nelson Angelo & Joyce"
INDEX 01 00:00:00
FILE "07 - The man from the avenue.wav" WAVE
TRACK 07 AUDIO
TITLE "The man from the avenue"
PERFORMER "Nelson Angelo & Joyce"
INDEX 01 00:00:00
FILE "08 - Tiro cruzado.wav" WAVE
TRACK 08 AUDIO
TITLE "Tiro cruzado"
PERFORMER "Nelson Angelo & Joyce"
INDEX 01 00:00:00
FILE "09 - Pessoas.wav" WAVE
TRACK 09 AUDIO
TITLE "Pessoas"
PERFORMER "Nelson Angelo & Joyce"
INDEX 01 00:00:00
FILE "10 - Meus vinte anos.wav" WAVE
TRACK 10 AUDIO
TITLE "Meus vinte anos"
PERFORMER "Nelson Angelo & Joyce"
INDEX 01 00:00:00
FILE "11 - Mantra.wav" WAVE
TRACK 11 AUDIO
TITLE "Mantra"
PERFORMER "Nelson Angelo & Joyce"
INDEX 01 00:00:00
FILE "12 - Vivo ou morto.wav" WAVE
TRACK 12 AUDIO
TITLE "Vivo ou morto"
PERFORMER "Nelson Angelo & Joyce"
INDEX 01 00:00:00
FILE "13 - Tudo comeca de novo.wav" WAVE
TRACK 13 AUDIO
TITLE "Tudo comeca de novo"
PERFORMER "Nelson Angelo & Joyce"
INDEX 01 00:00:00
 
Отчет CUETools
[CUETools log; Date: 13.04.2013 2:20:52; Version: 2.1.4]
[CTDB TOCID: y5WgCc1TZJ_vcM3dM4qpYTZmlXo-] disk not present in database.
[AccurateRip ID: 000eb714-0091a759-ab07100d] found.
Track [ CRC | V2 ] Status
01 [a0942c97|1db602bb] (2+0/2) Accurately ripped
02 [5982e4d7|1daf2175] (2+0/2) Accurately ripped
03 [41caf842|ef8affa3] (2+0/2) Accurately ripped
04 [c0509959|72f68b9e] (2+0/2) Accurately ripped
05 [1ba33f95|5bba051d] (2+0/2) Accurately ripped
06 [fb583d87|b4db118e] (2+0/2) Accurately ripped
07 [119d82c6|963b39bd] (2+0/2) Accurately ripped
08 [b6f8aa60|554783c7] (2+0/2) Accurately ripped
09 [2830584e|097668ae] (2+0/2) Accurately ripped
10 [b0768116|0bfe63df] (2+0/2) Accurately ripped
11 [8cdb6ec8|cc4e7aa7] (0+0/0) No match
12 [55b6d574|a1438be9] (0+0/0) No match
13 [0f3512ce|b7a63161] (0+0/0) No match
Track Peak [ CRC32 ] [W/O NULL] [ LOG ]
-- 100,0 [84049690] [2514398D]
01 94,4 [4D90C215] [6CB66B52] CRC32
02 98,1 [26BAF2A6] [BB516B7E] CRC32
03 98,6 [8C9AAFF0] [12E3679D] CRC32
04 100,0 [6CBC5582] [5F593A6F] CRC32
05 88,7 [3DB20EC2] [E2D5E9B7] CRC32
06 95,9 [8073134D] [A8CAD967] CRC32
07 88,5 [2862D1BC] [0196075E] CRC32
08 100,0 [9FA455BC] [A322BA6C] CRC32
09 97,5 [A7545C1A] [72D52B55] CRC32
10 98,0 [2FCF525D] [487E0D0A] CRC32
11 100,0 [135AD20F] [E2B6A39F] CRC32
12 97,0 [65793863] [42D829D9] CRC32
13 96,1 [6ADCC0A5] [A37AA628] CRC32
 
Об альбоме (сборнике)
Other Music, NYC:
A stunning collaboration from 1970. Nelson Angelo was a great, if somewhat overlooked Brazilian songwriter and arranger mainly known outside of the U.S. for his appearance on Milton Nascimento's classic "Clube da Esquina" (the present record is practically its sister album). Joyce had primarily been known as a bossa nova interpreter with a couple of albums and some singles under her belt. Prior to this record they were part of a short-lived quartet called A Tribo which experimented with the conventions of bossa nova.
After the dissolution of that group, Angelo and Joyce teamed up for the recording of this very, very beautiful album of hushed atmospherics and sweet melodies. The emphasis is on space, with songs constructed around Joyce's delicate acoustic guitar and Angelo's moody string and woodwind arrangements. The songs are given so much room to breathe that even a bit of fuzz guitar seems unobtrusive. A very subtle masterpiece, and one of the finest and most successful explorations into Brazilian song following the initial heyday of the Tropicalia movement.
11:22
331
Нет комментариев. Ваш будет первым!