Поиск

(Brazilian Jazz, Bossa Nova, Vocal Jazz) Joyce - Astronauta: Songs of Elis - 1998, FLAC (tracks+.cue), lossless

(Brazilian Jazz, Bossa Nova, Vocal Jazz) Joyce - Astronauta: Songs of Elis - 1998, FLAC (tracks+.cue), lossless
Треклист:
Joyce - Astronauta: Songs of Elis
Жанр: Brazilian Jazz, Bossa Nova, Vocal Jazz
Страна-производитель диска: США
Год издания: 1998
Издатель (лейбл): Blue Jackel Entertainment
Номер по каталогу: BJAC 5029-2
Аудиокодек: FLAC (*.flac)
Тип рипа: tracks+.cue
Битрейт аудио: lossless
Продолжительность: 59:39
Источник (релизер): Velani (what)
Наличие сканов в содержимом раздачи: сетевые
Треклист:
01. Samba pra Elis (Joyce-Pinheiro) - 3:59
02. Canto de Ossanha (Powell-De Moraes) - 4:52
03. Upa neguinho (Lobo-Guarnieri) - 3:59
04. Morro velho (Nascimento) - 5:14
05. Aquarela do Brasil (Barroso) - 4:40
06. O cantador (Caymmi-Motta) - 2:36
07. Astronauta (samba da pergunta) (Pingarilho-Vasconcelos) - 3:54
08. Oriente (Gil) - 4:13
09. Folhas secas (Cavaquinho-De Brito) - 3:50
10. Querelas do Brasil (Tapajos-Blanc) - 4:09
11. Menino das laranjas (De Barros) - 2:55
12. Essa mulher (Joyce-Terra) - 6:05
13. Na batucada da vida (Barroso-Peixoto) - 5:33
14. Waters of march (Aguas de marco) (Jobim) - 3:40
 
Лог создания рипа
Exact Audio Copy V0.99 prebeta 5 from 4. May 2009
EAC extraction logfile from 4. November 2010, 14:12
Joyce / Astronauta - Canções de Elis
Used drive : SlimtypeDVDRW SSW-8015S Adapter: 1 ID: 0
Read mode : Secure
Utilize accurate stream : Yes
Defeat audio cache : Yes
Make use of C2 pointers : No
Read offset correction : 594
Overread into Lead-In and Lead-Out : No
Fill up missing offset samples with silence : Yes
Delete leading and trailing silent blocks : No
Null samples used in CRC calculations : Yes
Used interface : Native Win32 interface for Win NT & 2000
Gap handling : Appended to previous track
Used output format : User Defined Encoder
Selected bitrate : 768 kBit/s
Quality : High
Add ID3 tag : No
Command line compressor : C:\Program Files\Exact Audio Copy\FLAC\FLAC.EXE
Additional command line options : -V -8 -T "artist=%a" -T "title=%t" -T "album=%g" -T "date=%y" -T "tracknumber=%n" -T "genre=%m" %s
TOC of the extracted CD
Track | Start | Length | Start sector | End sector
---------------------------------------------------------
1 | 0:00.30 | 3:58.43 | 30 | 17922
2 | 3:58.73 | 4:52.16 | 17923 | 39838
3 | 8:51.14 | 3:59.01 | 39839 | 57764
4 | 12:50.15 | 5:13.44 | 57765 | 81283
5 | 18:03.59 | 4:39.71 | 81284 | 102279
6 | 22:43.55 | 2:35.49 | 102280 | 113953
7 | 25:19.29 | 3:53.63 | 113954 | 131491
8 | 29:13.17 | 4:12.52 | 131492 | 150443
9 | 33:25.69 | 3:50.37 | 150444 | 167730
10 | 37:16.31 | 4:09.09 | 167731 | 186414
11 | 41:25.40 | 2:55.01 | 186415 | 199540
12 | 44:20.41 | 6:05.07 | 199541 | 226922
13 | 50:25.48 | 5:33.09 | 226923 | 251906
14 | 55:58.57 | 3:40.11 | 251907 | 268417
Track 1
Filename C:\Users\LG\Downloads\Torrent\Seeding\Joyce - - Astronauta - Canções de Elis [FLAC]\01 - Samba pra Elis.wav
Pre-gap length 0:00:02.30
Peak level 99.9 %
Track quality 100.0 %
Test CRC 27AA97B2
Copy CRC 27AA97B2
Accurately ripped (confidence 1) [BECDAF5E]
Copy OK
Track 2
Filename C:\Users\LG\Downloads\Torrent\Seeding\Joyce - - Astronauta - Canções de Elis [FLAC]\02 - Canto de Ossanha.wav
Peak level 100.0 %
Track quality 99.9 %
Test CRC 93B25040
Copy CRC 93B25040
Accurately ripped (confidence 1) [2C6207D5]
Copy OK
Track 3
Filename C:\Users\LG\Downloads\Torrent\Seeding\Joyce - - Astronauta - Canções de Elis [FLAC]\03 - Upa neguinho.wav
Peak level 97.3 %
Track quality 100.0 %
Test CRC 65598E78
Copy CRC 65598E78
Accurately ripped (confidence 1) [4109528D]
Copy OK
Track 4
Filename C:\Users\LG\Downloads\Torrent\Seeding\Joyce - - Astronauta - Canções de Elis [FLAC]\04 - Morro velho.wav
Peak level 95.1 %
Track quality 100.0 %
Test CRC 3AA81311
Copy CRC 3AA81311
Accurately ripped (confidence 1) [2EE9BB01]
Copy OK
Track 5
Filename C:\Users\LG\Downloads\Torrent\Seeding\Joyce - - Astronauta - Canções de Elis [FLAC]\05 - Aquarela do Brasil.wav
Peak level 100.0 %
Track quality 100.0 %
Test CRC 7C8F70EB
Copy CRC 7C8F70EB
Accurately ripped (confidence 1) [2BB2911C]
Copy OK
Track 6
Filename C:\Users\LG\Downloads\Torrent\Seeding\Joyce - - Astronauta - Canções de Elis [FLAC]\06 - O cantador.wav
Peak level 87.3 %
Track quality 100.0 %
Test CRC 1D2B46A2
Copy CRC 1D2B46A2
Accurately ripped (confidence 1) [8F8C787D]
Copy OK
Track 7
Filename C:\Users\LG\Downloads\Torrent\Seeding\Joyce - - Astronauta - Canções de Elis [FLAC]\07 - Astronauta (samba da pergunta).wav
Peak level 88.7 %
Track quality 100.0 %
Test CRC 10A1C2E1
Copy CRC 10A1C2E1
Accurately ripped (confidence 1) [F2DC00C4]
Copy OK
Track 8
Filename C:\Users\LG\Downloads\Torrent\Seeding\Joyce - - Astronauta - Canções de Elis [FLAC]\08 - Oriente.wav
Peak level 100.0 %
Track quality 99.9 %
Test CRC 9A67ED66
Copy CRC 9A67ED66
Accurately ripped (confidence 1) [154EB3A3]
Copy OK
Track 9
Filename C:\Users\LG\Downloads\Torrent\Seeding\Joyce - - Astronauta - Canções de Elis [FLAC]\09 - Folhas secas.wav
Peak level 100.0 %
Track quality 100.0 %
Test CRC B37A11F8
Copy CRC B37A11F8
Accurately ripped (confidence 1) [DE51A5A6]
Copy OK
Track 10
Filename C:\Users\LG\Downloads\Torrent\Seeding\Joyce - - Astronauta - Canções de Elis [FLAC]\10 - Querelas do Brasil.wav
Peak level 82.1 %
Track quality 100.0 %
Test CRC 05F258D2
Copy CRC 05F258D2
Accurately ripped (confidence 1) [FFA3E7C1]
Copy OK
Track 11
Filename C:\Users\LG\Downloads\Torrent\Seeding\Joyce - - Astronauta - Canções de Elis [FLAC]\11 - Menino das laranjas.wav
Peak level 100.0 %
Track quality 100.0 %
Test CRC 8E758AD6
Copy CRC 8E758AD6
Accurately ripped (confidence 1) [778E7352]
Copy OK
Track 12
Filename C:\Users\LG\Downloads\Torrent\Seeding\Joyce - - Astronauta - Canções de Elis [FLAC]\12 - Essa mulher.wav
Peak level 100.0 %
Track quality 100.0 %
Test CRC E48B8C06
Copy CRC E48B8C06
Accurately ripped (confidence 1) [67401C63]
Copy OK
Track 13
Filename C:\Users\LG\Downloads\Torrent\Seeding\Joyce - - Astronauta - Canções de Elis [FLAC]\13 - Na batucada da vida.wav
Peak level 90.0 %
Track quality 100.0 %
Test CRC ABC9569F
Copy CRC ABC9569F
Accurately ripped (confidence 1) [AE095344]
Copy OK
Track 14
Filename C:\Users\LG\Downloads\Torrent\Seeding\Joyce - - Astronauta - Canções de Elis [FLAC]\14 - Waters of march (Águas de março).wav
Peak level 100.0 %
Track quality 100.0 %
Test CRC AB4B70F8
Copy CRC AB4B70F8
Accurately ripped (confidence 1) [F95D06A9]
Copy OK
All tracks accurately ripped
No errors occurred
End of status report
 
Содержание индексной карты (.CUE)
REM GENRE Latin
REM DATE 1998
REM DISCID B00DFA0E
REM COMMENT "ExactAudioCopy v0.99pb5"
PERFORMER "Joyce"
TITLE "Astronauta: Songs of Elis"
FILE "01 - Samba pra Elis.wav" WAVE
TRACK 01 AUDIO
TITLE "Samba pra Elis"
PERFORMER "Joyce"
PREGAP 00:00:30
INDEX 01 00:00:00
FILE "02 - Canto de Ossanha.wav" WAVE
TRACK 02 AUDIO
TITLE "Canto de Ossanha"
PERFORMER "Joyce"
INDEX 01 00:00:00
FILE "03 - Upa neguinho.wav" WAVE
TRACK 03 AUDIO
TITLE "Upa neguinho"
PERFORMER "Joyce"
INDEX 01 00:00:00
FILE "04 - Morro velho.wav" WAVE
TRACK 04 AUDIO
TITLE "Morro velho"
PERFORMER "Joyce"
INDEX 01 00:00:00
FILE "05 - Aquarela do Brasil.wav" WAVE
TRACK 05 AUDIO
TITLE "Aquarela do Brasil"
PERFORMER "Joyce"
INDEX 01 00:00:00
FILE "06 - O cantador.wav" WAVE
TRACK 06 AUDIO
TITLE "O cantador"
PERFORMER "Joyce"
INDEX 01 00:00:00
FILE "07 - Astronauta (samba da pergunta).wav" WAVE
TRACK 07 AUDIO
TITLE "Astronauta (samba da pergunta)"
PERFORMER "Joyce"
INDEX 01 00:00:00
FILE "08 - Oriente.wav" WAVE
TRACK 08 AUDIO
TITLE "Oriente"
PERFORMER "Joyce"
INDEX 01 00:00:00
FILE "09 - Folhas secas.wav" WAVE
TRACK 09 AUDIO
TITLE "Folhas secas"
PERFORMER "Joyce"
INDEX 01 00:00:00
FILE "10 - Querelas do Brasil.wav" WAVE
TRACK 10 AUDIO
TITLE "Querelas do Brasil"
PERFORMER "Joyce"
INDEX 01 00:00:00
FILE "11 - Menino das laranjas.wav" WAVE
TRACK 11 AUDIO
TITLE "Menino das laranjas"
PERFORMER "Joyce"
INDEX 01 00:00:00
FILE "12 - Essa mulher.wav" WAVE
TRACK 12 AUDIO
TITLE "Essa mulher"
PERFORMER "Joyce"
INDEX 01 00:00:00
FILE "13 - Na batucada da vida.wav" WAVE
TRACK 13 AUDIO
TITLE "Na batucada da vida"
PERFORMER "Joyce"
INDEX 01 00:00:00
FILE "14 - Waters of march (Aguas de marco).wav" WAVE
TRACK 14 AUDIO
TITLE "Waters of march (Aguas de marco)"
PERFORMER "Joyce"
INDEX 01 00:00:00
 
Отчет CUETools
[CUETools log; Date: 12.04.2013 23:35:49; Version: 2.1.4]
Pregap length 00:00:30.
[CTDB TOCID: A2w8cMtZTwa4Te5UKuKydYgy8WI-] disk not present in database.
[AccurateRip ID: 001e74aa-01440729-b00dfa0e] found.
Track [ CRC | V2 ] Status
01 [becdaf5e|d059ca68] (2+0/2) Accurately ripped
02 [2c6207d5|d02a3fa0] (2+0/2) Accurately ripped
03 [4109528d|e73646cc] (2+0/2) Accurately ripped
04 [2ee9bb01|33d599af] (2+0/2) Accurately ripped
05 [2bb2911c|f3970a39] (2+0/2) Accurately ripped
06 [8f8c787d|9da5dcf8] (2+0/2) Accurately ripped
07 [f2dc00c4|f28edce8] (2+0/2) Accurately ripped
08 [154eb3a3|c15ec957] (2+0/2) Accurately ripped
09 [de51a5a6|5bb4ba06] (2+0/2) Accurately ripped
10 [ffa3e7c1|78ee100e] (2+0/2) Accurately ripped
11 [778e7352|9afa0859] (2+0/2) Accurately ripped
12 [67401c63|b04739ba] (2+0/2) Accurately ripped
13 [ae095344|f1bb9f80] (2+0/2) Accurately ripped
14 [f95d06a9|03ac32ad] (2+0/2) Accurately ripped
Track Peak [ CRC32 ] [W/O NULL] [ LOG ]
-- 100,0 [EA65B237] [914E95C4]
01 99,9 [27AA97B2] [27F63360] CRC32
02 100,0 [93B25040] [40814F8F] CRC32
03 97,3 [65598E78] [37B0141C] CRC32
04 95,1 [3AA81311] [7FBAF1D3] CRC32
05 99,9 [7C8F70EB] [0992699F] CRC32
06 87,3 [1D2B46A2] [86BEA81E] CRC32
07 88,7 [10A1C2E1] [BD0C3EF8] CRC32
08 100,0 [9A67ED66] [183311CF] CRC32
09 99,9 [B37A11F8] [375FF31C] CRC32
10 82,1 [05F258D2] [67ED4B3F] CRC32
11 99,9 [8E758AD6] [FBF394DA] CRC32
12 100,0 [E48B8C06] [20B08F87] CRC32
13 90,0 [ABC9569F] [B25840DA] CRC32
14 99,9 [AB4B70F8] [528C8248] CRC32
 
Review by Alvaro Neder
On this excellent album, Brazilian singer Joyce is surrounded by important jazz musicians Joe Lovano, Mulgrew Miller, Renee Rosnes, and Romero Lubambo, along with competent musicians Rodolfo Stroeter, Dori Caymmi, Guello, and Tutty Moreno. The release is a tribute to Elis Regina, one of the best singers of MPB, and Joyce interprets only songs recorded by her, except for the opening track "Samba Pra Elis," composed by Joyce/Paulo César Pinheiro. The sophisticated and extremely dissonant harmonies foretell a daring release in the MPB vein, serving at the same time as a good vehicle for Lovano's expression. Following the delicious samba-jazz line, you have "Canto de Ossanha" (one of the Afro sambas by Baden Powell/Vinícius de Moraes), "Upa Neguinho," "Astronauta" (which has a stronger bossa accent), "Folhas Secas" (by Nelson Cavaquinho/Guilherme de Brito, correct in the evocation of its hills' origins in the cuíca/tamborim percussion, mixed with Joyce's bossa violão), "Querelas Do Brasil" (reminiscing the association of Regina with new composers revealed by her, in this case, Maurício Tapajós/Aldir Blanc), and the best rendition of all, the extraordinarily swinging "Menino Das Laranjas" (Theo de Barros). The lyrical, melancholic, and dramatic feel of Regina is remembered in Milton Nascimento's "Morro Velho," "O Cantador" (by Dori and Nelson Motta, with some of Dori's distinctive vocalises and violão), "Essa Mulher" (Joyce/Ana Terra), and "Na Batucada Da Vida" (Ary Barroso/Luiz Peixoto). The immortal classic "Aquarela Do Brasil" by Ary Barroso (which had two million performances in the U.S.A. around 1943/1945 under the title of "Brazil") receives a treatment reminiscent of the mineiro sound of Som Imaginário here, more fluid and less marked than in the traditional samba interpretation. Bossa nova is in "Waters of March" sung in English by Caymmi and Joyce, and even the pop side of Regina is remembered in Gilberto Gil's "Oriente," with appropriate evocations of the East in the tablas and in the exotic scales. A strong vocal album, both in the rhythmic and in the heartfelt numbers, having additional interest brought by the superb instrumental performances.
 
Состав
Joyce, Joe Lovano, Mulgrew Miller, Renee Rosnes, Romero Lubambo, Rodolfo Stroeter, Dori Caymmi, Guello, Tutty Moreno.
11:19
277
Нет комментариев. Ваш будет первым!