Поиск

(Brazilian Jazz, Bossa Nova, Vocal Jazz) Ithamara Koorax - Rio vermelho - 1996, FLAC (tracks+.cue), lossless

(Brazilian Jazz, Bossa Nova, Vocal Jazz) Ithamara Koorax - Rio vermelho - 1996, FLAC (tracks+.cue), lossless
Треклист:
Ithamara Koorax - Rio vermelho
Жанр: Brazilian Jazz, Bossa Nova, Vocal Jazz
Страна-производитель диска: Бразилия
Год издания: 1996
Издатель (лейбл): Movieplay
Номер по каталогу: BS280
Аудиокодек: FLAC (*.flac)
Тип рипа: tracks+.cue
Битрейт аудио: lossless
Продолжительность: 67:36
Источник (релизер): fulanosicrano (what)
Наличие сканов в содержимом раздачи: нет
Треклист:
01. Sonho de um sonho (3:50)
02. Retrato em branco e preto (5:38)
03. Correnteza (6:42)
04. Preciso aprender a ser so (4:55)
05. Tudo acabado (5:26)
06. Ternura antiga (3:48)
07. Nao sei (4:28)
08. E preciso dizer adeus (3:37)
09. Cry me a river (6:06)
10. India (7:05)
11. Rio vermelho (3:44)
12. Se queres saber (8:15)
13. Empty glass (4:02)
 
Лог создания рипа
Exact Audio Copy V1.0 beta 3 from 29. August 2011
EAC extraction logfile from 3. January 2013, 10:17
Ithamara Koorax / Rio Vermelho
Used drive : HL-DT-STDVDRWBD CT40N Adapter: 0 ID: 1
Read mode : Secure
Utilize accurate stream : Yes
Defeat audio cache : Yes
Make use of C2 pointers : No
Read offset correction : 102
Overread into Lead-In and Lead-Out : No
Fill up missing offset samples with silence : Yes
Delete leading and trailing silent blocks : No
Null samples used in CRC calculations : Yes
Used interface : Native Win32 interface for Win NT & 2000
Gap handling : Appended to previous track
Used output format : User Defined Encoder
Selected bitrate : 1024 kBit/s
Quality : High
Add ID3 tag : No
Command line compressor : C:\Program Files (x86)\Exact Audio Copy\Flac\flac.exe
Additional command line options : -8 -V -T "ARTIST=%artist%" -T "TITLE=%title%" -T "ALBUM=%albumtitle%" -T "DATE=%year%" -T "TRACKNUMBER=%tracknr%" -T "GENRE=%genre%" -T "PERFORMER=%albuminterpret%" -T "COMPOSER=%composer%" %haslyrics%--tag-from-file=LYRICS="%lyricsfile%"%haslyrics% -T "ALBUMARTIST=%albumartist%" -T "DISCNUMBER=%cdnumber%" -T "TOTALDISCS=%totalcds%" -T "TOTALTRACKS=%numtracks%" -T "COMMENT=%comment%" %source% -o %dest%
TOC of the extracted CD
Track | Start | Length | Start sector | End sector
---------------------------------------------------------
1 | 0:00.00 | 3:50.07 | 0 | 17256
2 | 3:50.07 | 5:38.23 | 17257 | 42629
3 | 9:28.30 | 6:41.62 | 42630 | 72766
4 | 16:10.17 | 4:54.43 | 72767 | 94859
5 | 21:04.60 | 5:26.35 | 94860 | 119344
6 | 26:31.20 | 3:48.07 | 119345 | 136451
7 | 30:19.27 | 4:27.55 | 136452 | 156531
8 | 34:47.07 | 3:36.73 | 156532 | 172804
9 | 38:24.05 | 6:06.12 | 172805 | 200266
10 | 44:30.17 | 7:05.10 | 200267 | 232151
11 | 51:35.27 | 3:44.00 | 232152 | 248951
12 | 55:19.27 | 8:14.45 | 248952 | 286046
13 | 63:33.72 | 4:02.33 | 286047 | 304229
Track 1
Filename C:\EAC Rips\01 Sonho De Um Sonho.wav
Pre-gap length 0:00:02.00
Peak level 92.7 %
Extraction speed 2.3 X
Track quality 99.9 %
Test CRC 2723C7C8
Copy CRC 2723C7C8
Track not present in AccurateRip database
Copy OK
Track 2
Filename C:\EAC Rips\02 Retrato Em Branco E Preto.wav
Pre-gap length 0:00:01.56
Peak level 94.6 %
Extraction speed 2.8 X
Track quality 99.9 %
Test CRC A62F8C9C
Copy CRC A62F8C9C
Track not present in AccurateRip database
Copy OK
Track 3
Filename C:\EAC Rips\03 Correnteza.wav
Pre-gap length 0:00:01.57
Suspicious position 0:04:14
Peak level 93.3 %
Extraction speed 2.2 X
Track quality 99.8 %
Test CRC 118D3F96
Copy CRC 932C17F0
Track not present in AccurateRip database
Copy finished
Track 4
Filename C:\EAC Rips\04 Preciso Aprender A Ser Só.wav
Pre-gap length 0:00:01.56
Peak level 94.4 %
Extraction speed 3.9 X
Track quality 100.0 %
Test CRC 845462D0
Copy CRC 845462D0
Track not present in AccurateRip database
Copy OK
Track 5
Filename C:\EAC Rips\05 Tudo Acabado.wav
Peak level 93.4 %
Extraction speed 4.3 X
Track quality 100.0 %
Test CRC 0003C39F
Copy CRC 0003C39F
Track not present in AccurateRip database
Copy OK
Track 6
Filename C:\EAC Rips\06 Ternura Antiga.wav
Peak level 94.8 %
Extraction speed 3.4 X
Track quality 99.9 %
Test CRC E841C723
Copy CRC E841C723
Track not present in AccurateRip database
Copy OK
Track 7
Filename C:\EAC Rips\07 Não Sei.wav
Peak level 97.1 %
Extraction speed 4.3 X
Track quality 100.0 %
Test CRC 9C8C0439
Copy CRC 9C8C0439
Track not present in AccurateRip database
Copy OK
Track 8
Filename C:\EAC Rips\08 É Preciso Dizer Adeus.wav
Suspicious position 0:02:05 - 0:02:06
Suspicious position 0:02:08
Suspicious position 0:02:16
Suspicious position 0:02:27 - 0:02:28
Suspicious position 0:02:31 - 0:02:32
Suspicious position 0:02:52
Suspicious position 0:03:01 - 0:03:15
Suspicious position 0:03:17
Suspicious position 0:03:21 - 0:03:22
Suspicious position 0:03:26
Suspicious position 0:03:28 - 0:03:33
Suspicious position 0:03:35
Peak level 87.9 %
Extraction speed 0.0 X
Track quality 93.7 %
Test CRC 32A71049
Copy CRC 26F162AE
Track not present in AccurateRip database
Copy finished
Track 9
Filename C:\EAC Rips\09 Cry Me A River.wav
Suspicious position 0:01:06 - 0:01:10
Suspicious position 0:01:47 - 0:01:48
Suspicious position 0:02:02
Suspicious position 0:02:23 - 0:02:24
Suspicious position 0:02:53
Suspicious position 0:03:25
Suspicious position 0:03:27 - 0:03:28
Suspicious position 0:03:47 - 0:03:48
Suspicious position 0:04:58
Suspicious position 0:05:11 - 0:05:17
Suspicious position 0:05:33 - 0:05:36
Peak level 97.7 %
Extraction speed 0.0 X
Track quality 95.0 %
Test CRC 1F960449
Copy CRC E0F78B5A
Track not present in AccurateRip database
Copy finished
Track 10
Filename C:\EAC Rips\10 Índia.wav
Suspicious position 0:00:35 - 0:00:39
Suspicious position 0:00:54 - 0:01:00
Suspicious position 0:01:45 - 0:01:47
Suspicious position 0:02:23 - 0:02:28
Suspicious position 0:02:45
Suspicious position 0:02:48
Suspicious position 0:03:57 - 0:03:58
Peak level 96.7 %
Extraction speed 0.0 X
Track quality 95.0 %
Test CRC F971F5FD
Copy CRC 8913FF22
Track not present in AccurateRip database
Copy finished
Track 11
Filename C:\EAC Rips\11 Rio Vermelho.wav
Peak level 91.5 %
Extraction speed 4.9 X
Track quality 100.0 %
Test CRC 7FFF0D14
Copy CRC 7FFF0D14
Track not present in AccurateRip database
Copy OK
Track 12
Filename C:\EAC Rips\12 Se Queres Saber.wav
Peak level 94.7 %
Extraction speed 5.6 X
Track quality 100.0 %
Test CRC BB342A2A
Copy CRC BB342A2A
Track not present in AccurateRip database
Copy OK
Track 13
Filename C:\EAC Rips\13 Empty Glass.wav
Peak level 95.8 %
Extraction speed 5.5 X
Track quality 100.0 %
Test CRC 3FABBF27
Copy CRC 3FABBF27
Track not present in AccurateRip database
Copy OK
None of the tracks are present in the AccurateRip database
There were errors
End of status report
---- CUETools DB Plugin V2.1.3
[CTDB TOCID: Yugv_jw8M9SZ9dSCEG9cacH_e4g-] disk not present in database, Submit result: insufficient quality
==== Log checksum AAACA4D75C9CA80CB3D18A611D0934D1E1B512013CA6C233B4856D14F6CBFFA3 ====
 
Содержание индексной карты (.CUE)
REM GENRE Jazz
REM DATE 1996
REM DISCID B00FD80D
REM COMMENT "ExactAudioCopy v1.0b3"
PERFORMER "Ithamara Koorax"
TITLE "Rio vermelho"
FILE "01 - Sonho de um sonho.wav" WAVE
TRACK 01 AUDIO
TITLE "Sonho de um sonho"
PERFORMER "Ithamara Koorax"
INDEX 01 00:00:00
TRACK 02 AUDIO
TITLE "Retrato em branco e preto"
PERFORMER "Ithamara Koorax"
INDEX 00 03:48:40
FILE "02 - Retrato em branco e preto.wav" WAVE
INDEX 01 00:00:00
TRACK 03 AUDIO
TITLE "Correnteza"
PERFORMER "Ithamara Koorax"
INDEX 00 05:36:55
FILE "03 - Correnteza.wav" WAVE
INDEX 01 00:00:00
TRACK 04 AUDIO
TITLE "Preciso aprender a ser so"
PERFORMER "Ithamara Koorax"
INDEX 00 06:40:20
FILE "04 - Preciso aprender a ser so.wav" WAVE
INDEX 01 00:00:00
FILE "05 - Tudo acabado.wav" WAVE
TRACK 05 AUDIO
TITLE "Tudo acabado"
PERFORMER "Ithamara Koorax"
INDEX 01 00:00:00
FILE "06 - Ternura antiga.wav" WAVE
TRACK 06 AUDIO
TITLE "Ternura antiga"
PERFORMER "Ithamara Koorax"
INDEX 01 00:00:00
FILE "07 - Nao sei.wav" WAVE
TRACK 07 AUDIO
TITLE "Nao sei"
PERFORMER "Ithamara Koorax"
INDEX 01 00:00:00
FILE "08 - E preciso dizer adeus.wav" WAVE
TRACK 08 AUDIO
TITLE "E preciso dizer adeus"
PERFORMER "Ithamara Koorax"
INDEX 01 00:00:00
FILE "09 - Cry me a river.wav" WAVE
TRACK 09 AUDIO
TITLE "Cry me a river"
PERFORMER "Ithamara Koorax"
INDEX 01 00:00:00
FILE "10 - India.wav" WAVE
TRACK 10 AUDIO
TITLE "India"
PERFORMER "Ithamara Koorax"
INDEX 01 00:00:00
FILE "11 - Rio vermelho.wav" WAVE
TRACK 11 AUDIO
TITLE "Rio vermelho"
PERFORMER "Ithamara Koorax"
INDEX 01 00:00:00
FILE "12 - Se queres saber.wav" WAVE
TRACK 12 AUDIO
TITLE "Se queres saber"
PERFORMER "Ithamara Koorax"
INDEX 01 00:00:00
FILE "13 - Empty glass.wav" WAVE
TRACK 13 AUDIO
TITLE "Empty glass"
PERFORMER "Ithamara Koorax"
INDEX 01 00:00:00
 
Review by Alex Henderson
Any American who is seriously into Brazilian music knows that he/she cannot rely on U.S. labels alone; it is important to look for CDs that come out on Brazilian labels but make it to the U.S. as imports. Ithamara Koorax is a perfect example of a Brazilian pop-jazz vocalist who was well-known in Brazil before she had any North American releases. Although she didn't have anything out in the U.S. until Fantasy licensed Serenade in Blue from Brazil's Jazz Station label in 2000, she had provided several excellent albums for Brazilian and Japanese labels in the '90s. One of them was 1995's Rio Vermelho, which came out on Imagem in Brazil and Paddle Wheel in Japan. Emphasizing ballads, this pop-jazz effort is a fine example of Brazilian torch singing -- Rio Vermelho is mood music with a very Rio de Janeiro-ish sound. Rio de Janeiro, in fact, is where percussionist/arranger Arnaldo DeSouteiro produced this CD. Saying that Rio Vermelho is mood music isn't saying that Koorax's performances should fade into the background quietly -- she brings so much soul, depth, and emotion to the lyrics (most of them in Portuguese) that listeners would be doing themselves a disservice if they didn't turn up the volume and pay very close attention. And all of the songs that Koorax picks are perfect for a torch album, including Antonio Carlos Jobim's "É Preciso Dizer Adeus," the title track (a Milton Nascimento gem), and Arthur Hamilton's "Cry Me a River." The latter is one of only two English-language performances on this CD; the other is Luiz Bonfá's "Empty Glass," which also appears on Koorax's superb Bonfá tribute, Almost in Love: Ithamara Koorax Sings Luiz Bonfá. But whether she is singing in Portuguese or English, Rio Vermelho is a first-rate torch album.
11:34
302
Нет комментариев. Ваш будет первым!