Поиск

(Brazilian Jazz, Bossa Nova) [CD] Antonio Carlos Jobim - Stone Flower - 1970 (2006 Japan Edition), FLAC (tracks+.cue), lossless

(Brazilian Jazz, Bossa Nova) [CD] Antonio Carlos Jobim - Stone Flower - 1970 (2006 Japan Edition), FLAC (tracks+.cue), lossless
Треклист:
Antonio Carlos Jobim - Stone Flower
Жанр: Brazilian Jazz, Bossa Nova
Носитель: CD
Страна-производитель диска: Япония
Год издания: 1970 (2006)
Издатель (лейбл): CTI/King Records
Номер по каталогу: KICJ 2157
Аудиокодек: FLAC (*.flac)
Тип рипа: tracks+.cue
Битрейт аудио: lossless
Продолжительность: 34:30
Источник (релизер): magritte66 (what)
Наличие сканов в содержимом раздачи: нет
Треклист:
01. Tereza My Love (Jobim) - 4:24
02. Children's Games (Jobim) - 3:30
03. Choro (Jobim) - 2:11
04. Brazil (Barroso) - 7:26
05. Stone Flower (Jobim) - 3:21
06. Amparo (Jobim) - 3:42
07. Andorinha (Jobim) - 3:33
08. God and the Devil in the Land of the Sun (Jobim) - 2:24
09. Sabia (Jobim) - 3:59
Состав:
Antonio Carlos Jobim - piano, electric piano, guitar, vocals
Harry Lookofsky - violin
Joe Farrell - soprano saxophone
Urbie Green - trombone
Hubert Laws - flute
Ron Carter - bass
Joao Palma - drums
Airto Moreira - percussion
Everaldo Ferreira - percussion
Deodato - guitar, arranger
 
Лог создания рипа
X Lossless Decoder version 20140504 (147.0)
XLD extraction logfile from 2014-08-05 12:23:26 -0400
Antônio Carlos Jobim / Stone Flower
Used drive : HL-DT-ST DVDRW GS23N (revision SB03)
Media type : Pressed CD
Ripper mode : XLD Secure Ripper
Disable audio cache : OK for the drive with a cache less than 1375KiB
Make use of C2 pointers : NO
Read offset correction : 667
Max retry count : 100
Gap status : Analyzed, Appended
TOC of the extracted CD
Track | Start | Length | Start sector | End sector
---------------------------------------------------------
1 | 00:00:00 | 04:23:45 | 0 | 19769
2 | 04:23:45 | 03:30:00 | 19770 | 35519
3 | 07:53:45 | 02:10:47 | 35520 | 45316
4 | 10:04:17 | 07:25:65 | 45317 | 78756
5 | 17:30:07 | 03:21:10 | 78757 | 93841
6 | 20:51:17 | 03:41:45 | 93842 | 110461
7 | 24:32:62 | 03:32:68 | 110462 | 126429
8 | 28:05:55 | 02:23:40 | 126430 | 137194
9 | 30:29:20 | 03:58:72 | 137195 | 155116
List of alternate offset correction values
# | Absolute | Relative | Confidence
------------------------------------------
1 | 1008 | 341 | 2
AccurateRip Summary (DiscID: 000c3e6a-00595655-71081409)
Track 01 : OK (v2, confidence 2/2, with different offset)
Track 02 : OK (v2, confidence 2/2, with different offset)
Track 03 : OK (v2, confidence 2/2, with different offset)
Track 04 : OK (v2, confidence 2/2, with different offset)
Track 05 : OK (v2, confidence 2/2, with different offset)
Track 06 : OK (v2, confidence 2/2, with different offset)
Track 07 : OK (v2, confidence 2/2, with different offset)
Track 08 : OK (v2, confidence 2/2, with different offset)
Track 09 : OK (v2, confidence 2/2, with different offset)
->All tracks accurately ripped.
All Tracks
Album gain : -0.10 dB
Peak : 0.989441
Statistics
Read error : 0
Jitter error (maybe fixed) : 0
Retry sector count : 0
Damaged sector count : 0
Track 01
Filename : /whatcd/stone flower 2007/Antônio Carlos Jobim-Stone Flower (1970) (FLAC)/01 Tereza My Love.flac
Pre-gap length : 00:02:00
Track gain : 1.64 dB
Peak : 0.602905
CRC32 hash (test run) : 23E72DDB
CRC32 hash : 23E72DDB
CRC32 hash (skip zero) : 71E00359
AccurateRip v1 signature : A33FE20F
AccurateRip v2 signature : 3F91B4BB (9D477712 w/correction)
->Accurately ripped with different offset (v2, confidence 2/2, offset +341)
Statistics
Read error : 0
Jitter error (maybe fixed) : 0
Retry sector count : 0
Damaged sector count : 0
Track 02
Filename : /whatcd/stone flower 2007/Antônio Carlos Jobim-Stone Flower (1970) (FLAC)/02 Children's Game.flac
Pre-gap length : 00:01:25
Track gain : -1.99 dB
Peak : 0.901123
CRC32 hash (test run) : 6A7F64DD
CRC32 hash : 6A7F64DD
CRC32 hash (skip zero) : B6E4B5FC
AccurateRip v1 signature : A3A2E385
AccurateRip v2 signature : F3232DA1 (F880A64D w/correction)
->Accurately ripped with different offset (v2, confidence 2/2, offset +341)
Statistics
Read error : 0
Jitter error (maybe fixed) : 0
Retry sector count : 0
Damaged sector count : 0
Track 03
Filename : /whatcd/stone flower 2007/Antônio Carlos Jobim-Stone Flower (1970) (FLAC)/03 Choro.flac
Pre-gap length : 00:01:33
Track gain : 1.69 dB
Peak : 0.522003
CRC32 hash (test run) : 72A8EA37
CRC32 hash : 72A8EA37
CRC32 hash (skip zero) : A3143775
AccurateRip v1 signature : 510D9920
AccurateRip v2 signature : A2F73C32 (5B1EF160 w/correction)
->Accurately ripped with different offset (v2, confidence 2/2, offset +341)
Statistics
Read error : 0
Jitter error (maybe fixed) : 0
Retry sector count : 0
Damaged sector count : 0
Track 04
Filename : /whatcd/stone flower 2007/Antônio Carlos Jobim-Stone Flower (1970) (FLAC)/04 Brazil.flac
Pre-gap length : 00:01:02
Track gain : 0.11 dB
Peak : 0.989441
CRC32 hash (test run) : 25C10C8B
CRC32 hash : 25C10C8B
CRC32 hash (skip zero) : 19D7629C
AccurateRip v1 signature : E5126B64
AccurateRip v2 signature : 664FE44E (03906F52 w/correction)
->Accurately ripped with different offset (v2, confidence 2/2, offset +341)
Statistics
Read error : 0
Jitter error (maybe fixed) : 0
Retry sector count : 0
Damaged sector count : 0
Track 05
Filename : /whatcd/stone flower 2007/Antônio Carlos Jobim-Stone Flower (1970) (FLAC)/05 Stone Flower.flac
Pre-gap length : 00:02:37
Track gain : -2.08 dB
Peak : 0.941162
CRC32 hash (test run) : DD22BA83
CRC32 hash : DD22BA83
CRC32 hash (skip zero) : AFB9DCD0
AccurateRip v1 signature : 4C0DE9D9
AccurateRip v2 signature : 700DF608 (79CEF4F3 w/correction)
->Accurately ripped with different offset (v2, confidence 2/2, offset +341)
Statistics
Read error : 0
Jitter error (maybe fixed) : 0
Retry sector count : 0
Damaged sector count : 0
Track 06
Filename : /whatcd/stone flower 2007/Antônio Carlos Jobim-Stone Flower (1970) (FLAC)/06 Amparo.flac
Pre-gap length : 00:01:72
Track gain : 2.22 dB
Peak : 0.557037
CRC32 hash (test run) : 23588E97
CRC32 hash : 23588E97
CRC32 hash (skip zero) : 9D57CB30
AccurateRip v1 signature : D57AB6BE
AccurateRip v2 signature : 7D7B52A8 (C58A7FD4 w/correction)
->Accurately ripped with different offset (v2, confidence 2/2, offset +341)
Statistics
Read error : 0
Jitter error (maybe fixed) : 0
Retry sector count : 0
Damaged sector count : 0
Track 07
Filename : /whatcd/stone flower 2007/Antônio Carlos Jobim-Stone Flower (1970) (FLAC)/07 Andorinha.flac
Pre-gap length : 00:00:62
Track gain : 4.62 dB
Peak : 0.438019
CRC32 hash (test run) : 72ED03CD
CRC32 hash : 72ED03CD
CRC32 hash (skip zero) : B429B516
AccurateRip v1 signature : 0CB2440E
AccurateRip v2 signature : EEF86817 (DB932853 w/correction)
->Accurately ripped with different offset (v2, confidence 2/2, offset +341)
Statistics
Read error : 0
Jitter error (maybe fixed) : 0
Retry sector count : 0
Damaged sector count : 0
Track 08
Filename : /whatcd/stone flower 2007/Antônio Carlos Jobim-Stone Flower (1970) (FLAC)/08 God And The Devil In The The Land Of The Sun.flac
Pre-gap length : 00:01:38
Track gain : -1.75 dB
Peak : 0.937714
CRC32 hash (test run) : 02E785A7
CRC32 hash : 02E785A7
CRC32 hash (skip zero) : 4373161C
AccurateRip v1 signature : 926CF5A7
AccurateRip v2 signature : 404E651C (C24920F7 w/correction)
->Accurately ripped with different offset (v2, confidence 2/2, offset +341)
Statistics
Read error : 0
Jitter error (maybe fixed) : 0
Retry sector count : 0
Damaged sector count : 0
Track 09
Filename : /whatcd/stone flower 2007/Antônio Carlos Jobim-Stone Flower (1970) (FLAC)/09 Sabia.flac
Pre-gap length : 00:01:20
Track gain : 3.54 dB
Peak : 0.635101
CRC32 hash (test run) : 5FA4A458
CRC32 hash : 5FA4A458
CRC32 hash (skip zero) : 11DA2A23
AccurateRip v1 signature : 535920F8
AccurateRip v2 signature : 6371BCBB (AFB88BF0 w/correction)
->Accurately ripped with different offset (v2, confidence 2/2, offset +341)
Statistics
Read error : 0
Jitter error (maybe fixed) : 0
Retry sector count : 0
Damaged sector count : 0
No errors occurred
End of status report
 
Содержание индексной карты (.CUE)
TITLE "Stone Flower"
PERFORMER "Antonio Carlos Jobim"
REM GENRE "Jazz"
REM DATE "1970"
REM DISCID 71081409
REM REPLAYGAIN_ALBUM_GAIN -0.10 dB
REM REPLAYGAIN_ALBUM_PEAK 0.989441
FILE "01 - Tereza My Love.flac" WAVE
TRACK 01 AUDIO
TITLE "Tereza My Love"
REM REPLAYGAIN_TRACK_GAIN 1.64 dB
REM REPLAYGAIN_TRACK_PEAK 0.602905
INDEX 01 00:00:00
TRACK 02 AUDIO
TITLE "Children's Games"
REM REPLAYGAIN_TRACK_GAIN -1.99 dB
REM REPLAYGAIN_TRACK_PEAK 0.901123
INDEX 00 04:22:20
FILE "02 - Children's Games.flac" WAVE
INDEX 01 00:00:00
TRACK 03 AUDIO
TITLE "Choro"
REM REPLAYGAIN_TRACK_GAIN 1.69 dB
REM REPLAYGAIN_TRACK_PEAK 0.522003
INDEX 00 03:28:42
FILE "03 - Choro.flac" WAVE
INDEX 01 00:00:00
TRACK 04 AUDIO
TITLE "Brazil"
REM REPLAYGAIN_TRACK_GAIN 0.11 dB
REM REPLAYGAIN_TRACK_PEAK 0.989441
INDEX 00 02:09:45
FILE "04 - Brazil.flac" WAVE
INDEX 01 00:00:00
TRACK 05 AUDIO
TITLE "Stone Flower"
REM REPLAYGAIN_TRACK_GAIN -2.08 dB
REM REPLAYGAIN_TRACK_PEAK 0.941162
INDEX 00 07:23:28
FILE "05 - Stone Flower.flac" WAVE
INDEX 01 00:00:00
TRACK 06 AUDIO
TITLE "Amparo"
REM REPLAYGAIN_TRACK_GAIN 2.22 dB
REM REPLAYGAIN_TRACK_PEAK 0.557037
INDEX 00 03:19:13
FILE "06 - Amparo.flac" WAVE
INDEX 01 00:00:00
TRACK 07 AUDIO
TITLE "Andorinha"
REM REPLAYGAIN_TRACK_GAIN 4.62 dB
REM REPLAYGAIN_TRACK_PEAK 0.438019
INDEX 00 03:40:58
FILE "07 - Andorinha.flac" WAVE
INDEX 01 00:00:00
TRACK 08 AUDIO
TITLE "God and the Devil in the Land of the Sun"
REM REPLAYGAIN_TRACK_GAIN -1.75 dB
REM REPLAYGAIN_TRACK_PEAK 0.937714
INDEX 00 03:31:30
FILE "08 - God and the Devil in the Land of the Sun.flac" WAVE
INDEX 01 00:00:00
TRACK 09 AUDIO
TITLE "Sabia"
REM REPLAYGAIN_TRACK_GAIN 3.54 dB
REM REPLAYGAIN_TRACK_PEAK 0.635101
INDEX 00 02:22:20
FILE "09 - Sabia.flac" WAVE
INDEX 01 00:00:00
 
Отчет CUETools
[CUETools log; Date: 15.08.2014 22:48:01; Version: 2.1.4]
[CTDB TOCID: TCYoVfh2JajU_n2wCoqjUJHDBdE-] found.
Track | CTDB Status
1 | (3/6) Accurately ripped, or (1/6) differs in 150 samples @00:23:70-00:23:71,00:26:43-00:26:44,00:26:52-00:26:53,00:27:29,00:27:38,00:27:46-00:27:47,00:27:55-00:27:56, or (1/6) differs in 75 samples @00:22:59-00:22:60,00:25:41,00:26:43-00:26:44,00:26:61,00:26:69-00:26:70,00:27:20-00:27:21, or (1/6) differs in 22 samples @00:28:23
2 | (6/6) Accurately ripped
3 | (6/6) Accurately ripped
4 | (6/6) Accurately ripped
5 | (6/6) Accurately ripped
6 | (6/6) Accurately ripped
7 | (6/6) Accurately ripped
8 | (6/6) Accurately ripped
9 | (6/6) Accurately ripped
[AccurateRip ID: 000c3e6a-00595655-71081409] found.
Track [ CRC | V2 ] Status
01 [a33fe20f|3f91b4bb] (0+0/2) No match
02 [a3a2e385|f3232da1] (0+0/2) No match
03 [510d9920|a2f73c32] (0+0/2) No match
04 [e5126b64|664fe44e] (0+0/2) No match
05 [4c0de9d9|700df608] (0+0/2) No match
06 [d57ab6be|7d7b52a8] (0+0/2) No match
07 [0cb2440e|eef86817] (0+0/2) No match
08 [926cf5a7|404e651c] (0+0/2) No match
09 [535920f8|6371bcbb] (0+0/2) No match
Offsetted by 341:
01 [795547c2] (0/2) No match (V2 was not tested)
02 [04aec13e] (0/2) No match (V2 was not tested)
03 [403ad6a7] (0/2) No match (V2 was not tested)
04 [44839248] (0/2) No match (V2 was not tested)
05 [ac34097a] (0/2) No match (V2 was not tested)
06 [7f8893f5] (0/2) No match (V2 was not tested)
07 [55b2520f] (0/2) No match (V2 was not tested)
08 [51c37243] (0/2) No match (V2 was not tested)
09 [08804b80] (0/2) No match (V2 was not tested)
Track Peak [ CRC32 ] [W/O NULL]
-- 98,9 [C2016FE2] [3C117BA1]
01 60,2 [23E72DDB] [71E00359]
02 90,1 [6A7F64DD] [B6E4B5FC]
03 52,2 [72A8EA37] [A3143775]
04 98,9 [25C10C8B] [19D7629C]
05 94,1 [DD22BA83] [AFB9DCD0]
06 55,7 [23588E97] [9D57CB30]
07 43,8 [72ED03CD] [B429B516]
08 93,7 [02E785A7] [4373161C]
09 63,5 [5FA4A458] [11DA2A23]
 
Review by Thom Jurek
Recorded in 1970 at Rudy Van Gelder's studio in New Jersey under the production auspices of Creed Taylor, the arrangement and conducting skills of Deodato, and the engineering expertise of Van Gelder himself, Jobim's Stone Flower is quite simply one of his most quietly stunning works -- and certainly the high point of his time at Columbia. Nearly a decade after the paint peeled from the shine of bossa nova's domination of both the pop and jazz charts in the early '60s, Creed Taylor brought Jobim's tender hush of the bossa sound back into the limelight. With a band that included both Jobim and Deodato on guitars (Jobim also plays piano and sings in a couple of spots), Ron Carter on bass, João Palma on drums, Airto Moreira and Everaldo Ferreira on percussion, Urbie Green on trombone, Joe Farrell on soprano saxophone, and Harry Lookofsky laying down a soulful violin solo on the title track, Jobim created his own version of Kind of Blue. The set opens with the low, simmering "Tereza My Love," with its hushed, elongated trombone lines and shifting acoustic guitars floating on the evening breeze. It begins intimate and ends with a closeness that is almost uncomfortably sensual, even for bossa nova. And then there are the slippery piano melodies Jobim lets roll off his fingers against a backdrop of gauzy strings and syncopated rhythms in both "Choro" and "Brazil." The latter is a samba tune with a sprightly tempo brought to the fore by Jobim's sandy, smoky vocal hovering ghost-like about the instrumental shimmer in the mix. Take, for instance, the title track with its stuttered, near imperceptible percussion laid under a Jobim piano melody of such simplicity, it's harmonically deceptive. It isn't until Lookofsky enters for his solo that you realize just how sophisticated and dense both rhythm and the chromatic lyricism are. The album closes with a reprise of "Brazil," restating a theme that has, surprisingly been touched upon in every track since the original inception, making most of the disc a suite that is a lush, sense-altering mediation, not only on Jobim's music and the portraits it paints, but ON the sounds employed by Taylor to achieve this effect. Stone Flower is simply brilliant, a velvety, late-night snapshot of Jobim at his peak.
16:25
541
Нет комментариев. Ваш будет первым!