Поиск

(Brazilian Jazz, Bossa Nova) Antonio Adolfo - Cristalino - 1993, FLAC (image+.cue), lossless

(Brazilian Jazz, Bossa Nova) Antonio Adolfo - Cristalino - 1993, FLAC (image+.cue), lossless
Треклист:
Antonio Adolfo - Cristalino
Жанр: Brazilian Jazz, Bossa Nova
Страна-производитель диска: Бразилия
Год издания: 1993
Издатель (лейбл): Som Livre
Номер по каталогу: 401.0057
Аудиокодек: FLAC (*.flac)
Тип рипа: image+.cue
Битрейт аудио: lossless
Продолжительность: 36:43
Источник (релизер): rpt (hqshare)
Наличие сканов в содержимом раздачи: да
Треклист:
01. Agitadinho
02. Trem da Serra
03. Floresta
04. Bom Dia
05. Cristalina
06. 1999
07. Cromático
08. Balada
09. J. P. Saudações
10. Sá Marina
 
Лог создания рипа
Exact Audio Copy V1.0 beta 1 from 15. November 2010
EAC extraction logfile from 19. May 2011, 21:37
Antonio Adolfo / Cristalino
Used drive : HL-DT-STDVD-RAM GH22NS30 Adapter: 5 ID: 0
Read mode : Secure
Utilize accurate stream : Yes
Defeat audio cache : Yes
Make use of C2 pointers : No
Read offset correction : 102
Overread into Lead-In and Lead-Out : No
Fill up missing offset samples with silence : Yes
Delete leading and trailing silent blocks : No
Null samples used in CRC calculations : Yes
Used interface : Installed external ASPI interface
Used output format : Internal WAV Routines
Sample format : 44.100 Hz; 16 Bit; Stereo
TOC of the extracted CD
Track | Start | Length | Start sector | End sector
---------------------------------------------------------
1 | 0:00.33 | 3:40.70 | 33 | 16602
2 | 3:41.28 | 4:40.70 | 16603 | 37672
3 | 8:22.23 | 4:12.27 | 37673 | 56599
4 | 12:34.50 | 4:28.40 | 56600 | 76739
5 | 17:03.15 | 3:01.45 | 76740 | 90359
6 | 20:04.60 | 4:50.15 | 90360 | 112124
7 | 24:55.00 | 2:28.68 | 112125 | 123292
8 | 27:23.68 | 2:36.62 | 123293 | 135054
9 | 30:00.55 | 2:58.45 | 135055 | 148449
10 | 32:59.25 | 3:43.58 | 148450 | 165232
Range status and errors
Selected range
Filename H:\rEApEAt\Antonio Adolfo - Cristalino\Antonio Adolfo - Cristalino.wav
Peak level 96.1 %
Extraction speed 0.2 X
Range quality 100.0 %
Test CRC 9668038F
Copy CRC 9668038F
Copy OK
No errors occurred
AccurateRip summary
Track 1 not present in database
Track 2 not present in database
Track 3 not present in database
Track 4 not present in database
Track 5 not present in database
Track 6 not present in database
Track 7 not present in database
Track 8 not present in database
Track 9 not present in database
Track 10 not present in database
None of the tracks are present in the AccurateRip database
End of status report
==== Log checksum 35DED647962490761CB171F48A25F0F02B9D601F702E3E34E23EA27224CCF2AF ====
 
Содержание индексной карты (.CUE)
REM GENRE Instrumental
REM DATE 1989
REM DISCID 78089B0A
REM COMMENT "ExactAudioCopy v1.0b1"
PERFORMER "Antonio Adolfo"
TITLE "Cristalino"
FILE "Antonio Adolfo - Cristalino.wav" WAVE
TRACK 01 AUDIO
TITLE "Agitadinho"
PERFORMER "Antonio Adolfo"
INDEX 00 00:00:00
INDEX 01 00:00:33
TRACK 02 AUDIO
TITLE "Trem da Serra"
PERFORMER "Antonio Adolfo"
INDEX 00 03:38:68
INDEX 01 03:41:28
TRACK 03 AUDIO
TITLE "Floresta"
PERFORMER "Antonio Adolfo"
INDEX 00 08:20:55
INDEX 01 08:22:23
TRACK 04 AUDIO
TITLE "Bom dia"
PERFORMER "Antonio Adolfo"
INDEX 00 12:32:33
INDEX 01 12:34:50
TRACK 05 AUDIO
TITLE "Cristalina"
PERFORMER "Antonio Adolfo"
INDEX 00 17:00:70
INDEX 01 17:03:15
TRACK 06 AUDIO
TITLE "1999"
PERFORMER "Antonio Adolfo"
INDEX 00 20:02:50
INDEX 01 20:04:60
TRACK 07 AUDIO
TITLE "Cromбtico"
PERFORMER "Antonio Adolfo"
INDEX 00 24:52:55
INDEX 01 24:55:00
TRACK 08 AUDIO
TITLE "Balada"
PERFORMER "Antonio Adolfo"
INDEX 00 27:21:45
INDEX 01 27:23:68
TRACK 09 AUDIO
TITLE "J. P. Saudaзхes"
PERFORMER "Antonio Adolfo"
INDEX 00 29:59:18
INDEX 01 30:00:55
TRACK 10 AUDIO
TITLE "Sa Marina"
PERFORMER "Antonio Adolfo"
INDEX 00 32:57:13
INDEX 01 32:59:25
 
Отчет CUETools
[CUETools log; Date: 30.08.2012 19:52:53; Version: 2.1.4]
Pregap length 00:00:33.
[CTDB TOCID: QkwgWR6xKUIQBa_FtWs3mmYykUw-] disk not present in database.
[AccurateRip ID: 000eae75-0073c5df-78089b0a] disk not present in database.
Track Peak [ CRC32 ] [W/O NULL] [ LOG ]
-- 96,1 [9668038F] [FE46A4E3] CRC32
01 88,3 [4D979701] [307F88B4]
02 89,9 [0D2C607B] [9487B33D]
03 83,6 [0DDD3398] [0EC88235]
04 81,7 [866AC41C] [B997713A]
05 57,3 [8C25504B] [C2143C93]
06 89,3 [6BFDDCBE] [87C68CC3]
07 96,1 [0E4B6B04] [3E9D9FEC]
08 52,8 [9377AEB2] [7C283F7B]
09 79,8 [7DD2822A] [E8FF961B]
10 70,6 [454F1126] [536FB512]
 
Об альбоме (сборнике)
With his most recent album "Chora Baião", Antonio Adolfo has received some important 2011 awards by The Latin Jazz Corner, among them the "Latin Jazz Album of the Year" and "Latin Jazz Pianist of the Year". Adolfo is also very well known by the brazilians, at least by those who remember his 60's and 70's hits - like "Juliana", "Teletema", "BR-3" and "Sá Marina".
Antonio Adolfo mentions Luiz Eça, Tom Jobim, Oscar Peterson, Bill Evans and João Gilberto - "all the jazz and bossa nova folks, a lot of people" - as his greatest influences. In "Cristalino", released in 1993, he presents a fine brazilian jazz album with some gifted musicians like Dino 7 cordas, Serginho do Trombone, Nélson Faria, Chacal and Mauro Senise. (rpt)
03:54
613
Нет комментариев. Ваш будет первым!