Поиск

(Brazilian, Bossa Nova, Samba, Latin pop) Bebel Gilberto - Tanto Tempo - 2002, FLAC (tracks+.cue), lossless

Треклист:
(Brazilian) Bebel Gilberto - Tanto Tempo (2002) [FLAC (tracks+cue), lossless]
Bebel Gilberto - Tanto Tempo
Исполнитель: Bebel Gilberto
Альбом: Tanto Tempo
Страна: New York City, United States
Лейбл: Ziriguiboom
Дата выпуска: 2002
Жанр: Brazilian, Bossa Nova, Samba, Latin pop
Формат: FLAC (tracks+cue)
Битрейт: lossless
Продолжительность: 00:40:42
Источник: TPB, релизер: pastafari
Треклист:
01. Samba Da Bencao [00:04:44]
02. August Day Song [00:04:36]
03. Tanto Tempo [00:02:58]
04. Sem Contencao [00:03:08]
05. Mais Feliz [00:04:14]
06. Alguem [00:04:02]
07. So Nice (Summer Samba) [00:03:30]
08. Lonely [00:02:22]
09. Bananeira [00:03:24]
10. Samba E Amor [00:03:26]
11. Close Your Eyes [00:04:13]
Доп. информация: http://en.wikipedia.org/wiki/Bebel_Gilberto
 
Отчёт EAC
Exact Audio Copy V0.99 prebeta 5 from 4. May 2009
EAC extraction logfile from 11. February 2010, 23:59
Bebel Gilberto / Tanto Tempo
Used drive : TSSTcorpCDDVDW TS-H653N Adapter: 2 ID: 2
Read mode : Secure
Utilize accurate stream : Yes
Defeat audio cache : Yes
Make use of C2 pointers : No
Read offset correction : 6
Overread into Lead-In and Lead-Out : No
Fill up missing offset samples with silence : Yes
Delete leading and trailing silent blocks : No
Null samples used in CRC calculations : Yes
Used interface : Native Win32 interface for Win NT & 2000
Gap handling : Appended to previous track
Used output format : User Defined Encoder
Selected bitrate : 1024 kBit/s
Quality : High
Add ID3 tag : No
Command line compressor : C:\Program Files\FLAC -\flac.exe
Additional command line options : -5 -V -T "artist=%a" -T "title=%t" -T "album=%g" -T "date=%y" -T "tracknumber=%n" -T "genre=%m" -T comment="shared by pastafari cubensis" %s
TOC of the extracted CD
Track | Start | Length | Start sector | End sector
---------------------------------------------------------
1 | 0:00.00 | 4:47.20 | 0 | 21544
2 | 4:47.20 | 4:37.17 | 21545 | 42336
3 | 9:24.37 | 3:01.38 | 42337 | 55949
4 | 12:26.00 | 3:10.45 | 55950 | 70244
5 | 15:36.45 | 4:17.02 | 70245 | 89521
6 | 19:53.47 | 4:04.53 | 89522 | 107874
7 | 23:58.25 | 3:32.37 | 107875 | 123811
8 | 27:30.62 | 2:24.48 | 123812 | 134659
9 | 29:55.35 | 3:26.55 | 134660 | 150164
10 | 33:22.15 | 3:28.67 | 150165 | 165831
11 | 36:51.07 | 4:14.48 | 165832 | 184929
Track 1
Filename C:\CD_buffer\Bebel Gilberto - 2000 - Tanto Tempo [FLAC]\01 - Samba da Bencao.wav
Pre-gap length 0:00:02.00
Peak level 99.6 %
Track quality 100.0 %
Test CRC 7B29345A
Copy CRC 7B29345A
Copy OK
Track 2
Filename C:\CD_buffer\Bebel Gilberto - 2000 - Tanto Tempo [FLAC]\02 - August Day Song.wav
Pre-gap length 0:00:01.30
Peak level 99.1 %
Track quality 100.0 %
Test CRC 97895967
Copy CRC 97895967
Copy OK
Track 3
Filename C:\CD_buffer\Bebel Gilberto - 2000 - Tanto Tempo [FLAC]\03 - Tanto Tempo.wav
Peak level 99.2 %
Track quality 100.0 %
Test CRC D8C7480D
Copy CRC D8C7480D
Copy OK
Track 4
Filename C:\CD_buffer\Bebel Gilberto - 2000 - Tanto Tempo [FLAC]\04 - Sem Contencao.wav
Pre-gap length 0:00:02.60
Peak level 99.5 %
Track quality 99.9 %
Test CRC 2315917E
Copy CRC 2315917E
Copy OK
Track 5
Filename C:\CD_buffer\Bebel Gilberto - 2000 - Tanto Tempo [FLAC]\05 - Mais Feliz.wav
Pre-gap length 0:00:01.30
Peak level 99.9 %
Track quality 99.9 %
Test CRC 99EC8F7B
Copy CRC 99EC8F7B
Copy OK
Track 6
Filename C:\CD_buffer\Bebel Gilberto - 2000 - Tanto Tempo [FLAC]\06 - Alguem.wav
Pre-gap length 0:00:01.62
Peak level 99.3 %
Track quality 99.9 %
Test CRC AE0709CB
Copy CRC AE0709CB
Copy OK
Track 7
Filename C:\CD_buffer\Bebel Gilberto - 2000 - Tanto Tempo [FLAC]\07 - So Nice (Summer Samba).wav
Pre-gap length 0:00:01.30
Peak level 99.8 %
Track quality 99.9 %
Test CRC 945F1058
Copy CRC 945F1058
Copy OK
Track 8
Filename C:\CD_buffer\Bebel Gilberto - 2000 - Tanto Tempo [FLAC]\08 - Lonely.wav
Pre-gap length 0:00:01.30
Peak level 98.7 %
Track quality 100.0 %
Test CRC F2D4B097
Copy CRC F2D4B097
Copy OK
Track 9
Filename C:\CD_buffer\Bebel Gilberto - 2000 - Tanto Tempo [FLAC]\09 - Bananeira.wav
Pre-gap length 0:00:01.23
Peak level 100.0 %
Track quality 100.0 %
Test CRC 81C45D11
Copy CRC 81C45D11
Copy OK
Track 10
Filename C:\CD_buffer\Bebel Gilberto - 2000 - Tanto Tempo [FLAC]\10 - Samba e Amor.wav
Pre-gap length 0:00:01.30
Peak level 93.4 %
Track quality 99.9 %
Test CRC 0DA58936
Copy CRC 0DA58936
Copy OK
Track 11
Filename C:\CD_buffer\Bebel Gilberto - 2000 - Tanto Tempo [FLAC]\11 - Close Your Eyes.wav
Pre-gap length 0:00:01.30
Peak level 99.6 %
Track quality 100.0 %
Test CRC 1B1D486B
Copy CRC 1B1D486B
Copy OK
No errors occurred
End of status report
 
CUE
REM GENRE Brazilian
REM DATE 2000
REM DISCID 9A09A10B
REM COMMENT "ExactAudioCopy v0.99pb5"
PERFORMER "Bebel Gilberto"
TITLE "Tanto Tempo"
FILE "Bebel Gilberto - 2002 - Tanto Tempo [FLAC]\01- Samba da Bencao.wav" WAVE
TRACK 01 AUDIO
TITLE "Samba da Bencao"
PERFORMER "Bebel Gilberto"
INDEX 01 00:00:00
TRACK 02 AUDIO
TITLE "August Day Song"
PERFORMER "Bebel Gilberto"
INDEX 00 04:45:65
FILE "Bebel Gilberto - 2002 - Tanto Tempo [FLAC]\02- August Day Song.wav" WAVE
INDEX 01 00:00:00
FILE "Bebel Gilberto - 2002 - Tanto Tempo [FLAC]\03- Tanto Tempo.wav" WAVE
TRACK 03 AUDIO
TITLE "Tanto Tempo"
PERFORMER "Bebel Gilberto"
INDEX 01 00:00:00
TRACK 04 AUDIO
TITLE "Sem Contencao"
PERFORMER "Bebel Gilberto"
INDEX 00 02:58:53
FILE "Bebel Gilberto - 2002 - Tanto Tempo [FLAC]\04- Sem Contencao.wav" WAVE
INDEX 01 00:00:00
TRACK 05 AUDIO
TITLE "Mais Feliz"
PERFORMER "Bebel Gilberto"
INDEX 00 03:09:15
FILE "Bebel Gilberto - 2002 - Tanto Tempo [FLAC]\05- Mais Feliz.wav" WAVE
INDEX 01 00:00:00
TRACK 06 AUDIO
TITLE "Alguem"
PERFORMER "Bebel Gilberto"
INDEX 00 04:15:15
FILE "Bebel Gilberto - 2002 - Tanto Tempo [FLAC]\06- Alguem.wav" WAVE
INDEX 01 00:00:00
TRACK 07 AUDIO
TITLE "So Nice (Summer Samba)"
PERFORMER "Bebel Gilberto"
INDEX 00 04:03:23
FILE "Bebel Gilberto - 2002 - Tanto Tempo [FLAC]\07- So Nice (Summer Samba).wav" WAVE
INDEX 01 00:00:00
TRACK 08 AUDIO
TITLE "Lonely"
PERFORMER "Bebel Gilberto"
INDEX 00 03:31:07
FILE "Bebel Gilberto - 2002 - Tanto Tempo [FLAC]\08- Lonely.wav" WAVE
INDEX 01 00:00:00
TRACK 09 AUDIO
TITLE "Bananeira"
PERFORMER "Bebel Gilberto"
INDEX 00 02:23:25
FILE "Bebel Gilberto - 2002 - Tanto Tempo [FLAC]\09- Bananeira.wav" WAVE
INDEX 01 00:00:00
TRACK 10 AUDIO
TITLE "Samba e Amor"
PERFORMER "Bebel Gilberto"
INDEX 00 03:25:25
FILE "Bebel Gilberto - 2002 - Tanto Tempo [FLAC]\10- Samba e Amor.wav" WAVE
INDEX 01 00:00:00
TRACK 11 AUDIO
TITLE "Close Your Eyes"
PERFORMER "Bebel Gilberto"
INDEX 00 03:27:37
FILE "Bebel Gilberto - 2002 - Tanto Tempo [FLAC]\11- Close Your Eyes.wav" WAVE
INDEX 01 00:00:00
Jai Guru Deva Om
14:11
362
Нет комментариев. Ваш будет первым!