Поиск

(Bossa Nova/Vocal Jazz/Latin Jazz) Elizeth Cardoso - O Inverno Do Meu Tempo - 1979, FLAC (image+.cue), lossless

Треклист:
Elizeth Cardoso - O Inverno Do Meu Tempo
Жанр: Bossa Nova/Vocal Jazz/Latin Jazz
Год выпуска диска: 1979
Производитель диска: RCA (Som Livre) - Brazil
Источник: My CD
Аудио кодек: FLAC
Тип рипа: image+.cue
Битрейт аудио: lossless
Продолжительность: 40:25
Трэклист:
01 - Mulata Faceira (with Joao Nogueira) (3:12)
02 - Queixa (3:07)
03 - No Tempo Dos Quintais (3:25)
04 - Unhas (2:56)
05 - Mar De Vermelho E Branco (3:03)
06 - O Inverno Do Meu Tempo (2:53)
07 - Primavera/Outono (3:12)
08 - Voltar (2:41)
09 - Migalhas (3:15)
10 - Por Quase Nada (3:41)
11 - Velho Amigo (with Baden Powell) (2:54)
12 - De Repente (2:57)
13 - Bachianas Brasileiras Nº 5 - 1ª Parte Da Aria (Cantilena) (2:40)
 
Scans
 
Информация/Information
This is Elizeth Cardoso – O Inverno do Meu Tempo (1979), for Som Livre, featuring Elizeth Cardoso backed by a breathtaking cast of musicians, including Baden Powell performing his composition Velho Amigo on track 11. It is fantastic how Elizeth Cardoso delivers an above the average performance in such period of her career. She seems to be always in control of everything, from the repertoire to musicians she gathers to recording sessions.
Personnel
Ze Menezes, Waltel Branco, Helio Capucci, Neco, Dino 7 Cordas, Raphael Rabello, Baden Powell
(violao)
Alceu Camara Maia, Mane do Cavaco
(cavaquinho)
Sergio Barroso, Luizao, Gabriel Bezerra de Mello
(bass)
Antonio Adolfo, Sergio Carvalho
(piano)
Wilson das Neves
(drums)
Alberto das Neves, Oswaldo da Silva, Marcal, Luna, Elizeu Felix, Elias Ferreira, Wilson Canegal, Gordinho, Doutor do Repique, Geraldo Sabino, Belelau
(percussion)
Braz Limonge Filho, Jorge Ferreira da Silva, Mauro Senise, Franklin
(oboe)
Edson Maciel, Nelsinho
(trombone)
Formiga
(trumpet)
Darcy da Cruz
(flugelhorn)
Ze Bodega, Bijou, Aurino, Pedro Silveira Neto
(sax)
Antonio Candido Sobrinho, Luiz Candido da Costa
(trompa)
Mauricio Einhorn
(harmonica)
Radames Gnattali, Sivuca, Sergio Carvalho, Geraldo Vespar, Antonio Adolfo
(arrangements)
 
EAC Лог
Exact Audio Copy V0.99 prebeta 5 from 4. May 2009
EAC extraction logfile from 20. January 2010, 11:54
Elizeth Cardoso / O Inverno Do Meu Tempo
Used drive : HL-DT-STDVDRAM GH20NS15 Adapter: 0 ID: 0
Read mode : Secure
Utilize accurate stream : Yes
Defeat audio cache : Yes
Make use of C2 pointers : No
Read offset correction : 667
Overread into Lead-In and Lead-Out : No
Fill up missing offset samples with silence : Yes
Delete leading and trailing silent blocks : No
Null samples used in CRC calculations : Yes
Used interface : Installed external ASPI interface
Used output format : User Defined Encoder
Selected bitrate : 1024 kBit/s
Quality : High
Add ID3 tag : No
Command line compressor : C:\Program Files\Exact Audio Copy\Flac\flac.exe
Additional command line options : -8 -A tukey(0.25) -A gauss(0.1875) -b 4096 -V -T "artist=%a" -T "title=%t" -T "album=%g" -T "date=%y" -T "tracknumber=%n" -T "genre=%m" %s --sector-align
TOC of the extracted CD
Track | Start | Length | Start sector | End sector
---------------------------------------------------------
1 | 0:00.00 | 3:14.09 | 0 | 14558
2 | 3:14.09 | 3:09.31 | 14559 | 28764
3 | 6:23.40 | 3:27.18 | 28765 | 44307
4 | 9:50.58 | 2:58.11 | 44308 | 57668
5 | 12:48.69 | 3:05.54 | 57669 | 71597
6 | 15:54.48 | 2:55.05 | 71598 | 84727
7 | 18:49.53 | 3:14.18 | 84728 | 99295
8 | 22:03.71 | 2:43.25 | 99296 | 111545
9 | 24:47.21 | 3:17.55 | 111546 | 126375
10 | 28:05.01 | 3:43.49 | 126376 | 143149
11 | 31:48.50 | 2:56.73 | 143150 | 156422
12 | 34:45.48 | 2:59.27 | 156423 | 169874
13 | 37:45.00 | 2:40.16 | 169875 | 181890
Range status and errors
Selected range
Filename D:\Torrents.ru\Elizeth Cardoso\Elizeth Cardoso - O Inverno Do Meu Tempo\Elizeth Cardoso - O Inverno Do Meu Tempo.wav
Peak level 100.0 %
Range quality 100.0 %
Test CRC 0AEC79FF
Copy CRC 0AEC79FF
Copy OK
No errors occurred
End of status report
 
Audiochecker
AUDIOCHECKER v2.0 beta (build 457) - by Dester - opdester@freemail.hu
~~~~~~~~~~~~~~~~~~~~~~~~~~~~~~~~~~
-=== DO NOT EDIT THIS FILE! ===-
Path: ...\Elizeth Cardoso - O Inverno Do Meu Tempo
1 -=- Elizeth Cardoso - O Inverno Do Meu Tempo.flac -=- CDDA (100%)
132151956
12:56
277
Нет комментариев. Ваш будет первым!