Поиск

(Bossa Nova/Vocal Jazz/Latin Jazz) Elis Regina - Me Deixa Em Paz - 1972, FLAC (image+.cue), lossless

Треклист:
Elis Regina - Me Deixa Em Paz
Жанр: Bossa Nova/Vocal Jazz/Latin Jazz
Год выпуска диска: 1972
Производитель диска: Universal (Pergola) - 2062 - Portugal
Аудио кодек: FLAC
Тип рипа: image+.cue
Битрейт аудио: lossless
Продолжительность: 33:48
Трэклист:
01 20 Anos Blue
02 Bala com Bala
03 Nadsa Sera como Antes
04 Mucuripe
05 Olhos Abertos
06 Vida de Bailarina
07 Aguas de Marco
08 Atras da Porta
09 Cais
10 Me Deixa em Paz
11 Casa no Campo
12 Boa Noite Amor
 
Scans
 
Info
Там очень много узнать о бразильской музыке и всей жизни не достаточно, чтобы знать все. В моем случае, я имею некоторые важные пробелы в знаниях, такие, как огромная дискография Elis Regina, считал своими друзьями Loronixer по опросу, сделали два года назад, лучшие бразильские Diva никогда. Немногое, что я знаю о Альбомы Elis Regina, и очевидно, что я не есть какой-либо информации об этой неясной альбом в Португалии. Во всяком случае, Элис Регина является великим певцом, и было долгое время мы не делаем одно из многих ее альбомов. Давайте посмотрим.
Это Elis Regina - Me Deixa EM-Пас (1972), для Пергола (Португалия), с механизмами и фортепиано Сезара Камарго Мариано. И это все, что я знаю об этом альбоме, который, вероятно, компиляция, твердо слушать от начала до конца. Передняя крышка говорит Me Deixa EM-Пасе это сделал специальное издание для членов Клуб де leitura (чтение-клуб). Я хотел бы стать членом этого клуба, было очень трудно выбрать Рекомендуемые пути на Loronix Предварительный центр. Я должен был решить один трек из нескольких классиков, таких как Агуас де Марко, Атрас да Порта, Nada Sera полезное антов, Casa No Campo, Cais, но мое решение было заглавный трек, Me Deixa EM-Пасе (Иван Линс / Роналду Монтейру De Souza).
There’s a lot to know about Brazilian music and a whole life is not enough to know everything. In my case, I have some important knowledge gaps, such as the vast discography of Elis Regina, considered Loronixer’s friends on a poll made two years ago, the best Brazilian diva ever. Little I know about Elis Regina discography and it is obvious that I don’t have any kind of information about this obscure album released in Portugal. Anyway, Elis Regina is a great singer and it has been a long time we don’t make one of her many albums. Let’s see.
This is Elis Regina – Me Deixa em Paz (1972), for Pergola (Portugal), with arrangements and piano by Cesar Camargo Mariano. And this is all I know about this album, which is probably a compilation, a solid listen from the start to end. The front cover says Me Deixa em Paz is a special edition made to the members of a clube de leitura (reading club). I would like to be a member of this club; it was very hard to select the featured track at Loronix Preview Center. I had to decide a single track among several classics, such like Aguas de Marco, Atras da Porta, Nada Sera como Antes, Casa no Campo, Cais, but my decision was the title track, Me Deixa em Paz (Ivan Lins / Ronaldo Monteiro de Souza).
 
EAC Log
Exact Audio Copy V0.99 prebeta 5 from 4. May 2009
EAC extraction logfile from 13. December 2009, 15:15
Elis Regina / Me Deixa Em Paz
Used drive : HL-DT-STDVDRAM GH20NS15 Adapter: 0 ID: 0
Read mode : Secure
Utilize accurate stream : Yes
Defeat audio cache : Yes
Make use of C2 pointers : No
Read offset correction : 667
Overread into Lead-In and Lead-Out : No
Fill up missing offset samples with silence : Yes
Delete leading and trailing silent blocks : No
Null samples used in CRC calculations : Yes
Used interface : Installed external ASPI interface
Used output format : User Defined Encoder
Selected bitrate : 1024 kBit/s
Quality : High
Add ID3 tag : No
Command line compressor : C:\Program Files\Exact Audio Copy\Flac\flac.exe
Additional command line options : -8 -A tukey(0.25) -A gauss(0.1875) -b 4096 -V -T "artist=%a" -T "title=%t" -T "album=%g" -T "date=%y" -T "tracknumber=%n" -T "genre=%m" %s --sector-align
TOC of the extracted CD
Track | Start | Length | Start sector | End sector
---------------------------------------------------------
1 | 0:00.00 | 3:07.13 | 0 | 14037
2 | 3:07.13 | 3:16.40 | 14038 | 28777
3 | 6:23.53 | 2:46.12 | 28778 | 41239
4 | 9:09.65 | 2:32.23 | 41240 | 52662
5 | 11:42.13 | 2:38.21 | 52663 | 64533
6 | 14:20.34 | 2:30.33 | 64534 | 75816
7 | 16:50.67 | 3:10.03 | 75817 | 90069
8 | 20:00.70 | 2:52.74 | 90070 | 103043
9 | 22:53.69 | 3:21.21 | 103044 | 118139
10 | 26:15.15 | 2:13.14 | 118140 | 128128
11 | 28:28.29 | 2:57.38 | 128129 | 141441
12 | 31:25.67 | 2:22.40 | 141442 | 152131
Range status and errors
Selected range
Filename D:\Torrents.ru\Elis Regina\Elis Regina - Me Deixa Em Paz (LP)\Elis Regina - Me Deixa Em Paz (LP).wav
Peak level 100.0 %
Range quality 100.0 %
Test CRC 706714D7
Copy CRC 706714D7
Copy OK
No errors occurred
End of status report
 
Audiochecker
AUDIOCHECKER v2.0 beta (build 457) - by Dester - opdester@freemail.hu
~~~~~~~~~~~~~~~~~~~~~~~~~~~~~~~~~~
-=== DO NOT EDIT THIS FILE! ===-
Path: ...\Elis Regina - Me Deixa Em Paz (LP)
1 -=- Elis Regina - Me Deixa Em Paz (LP).flac -=- CDDA (100%)
198583108
 
Tau Analyzer
Download available for power users only.
10:29
266
Нет комментариев. Ваш будет первым!