Поиск

(Bossa Nova/Samba Jazz/Latin Jazz) VA - Elenco Premiere - 1963, FLAC (image+.cue), lossless

Треклист:
Various Artists - Elenco Première
Жанр: Bossa Nova/Samba Jazz/Latin Jazz
Год выпуска диска: 1963
Производитель диска: Elenco Records - Brazil
Source: My CD
Аудио кодек: FLAC
Тип рипа: image+.cue
Битрейт аудио: lossless
Продолжительность: 32:56
Трэклист:
1 - Deixa (Vinicius De Moraes & Odette Lara) - 3:03
2 - Sol Da Meia-Noite (Sylvia Telles) - 3:51
3 - Dan-Cha-Cha (Lucio Alves) - 1:42
4 - Menequim 46 (Baden Powell) - 1:57
5 - So Por Amor (Vinicius De Moraes & Odette Lara) - 3:59
6 - Garota De Ipanema (Roberto Menescal) - 3:21
7 - Balancamba (Lucio Alves) - 1:45
8 - Berimbau (Vinicius De Moraes & Odette Lara) - 3:14
9 - Rio (Sylvia Telles) - 2:46
10 - Deve Ser Amor (Baden Powell) - 3:24
11 - Hoje So (Vinicius De Moraes & Odette Lara) - 1:58
12 - Desafinado (Roberto Menescal) - 2:17
 
Информация/Information
This is Elenco Premiere (1963), for Elenco, featuring tracks from the first five Elenco records, Odette Lara & Vinicius de Moraes – Vinicius & Odette Lara (1963) as ME-1, Lucio Alves – Balancamba (1963) as ME-2, Roberto Menescal – A Bossa Nova de Roberto Menescal e Seu Conjunto (1963), as ME-3, Baden Powell – Baden Powell Swings with Jimmy Pratt (1963), as ME-4 and Sylvia Telles – Bossa, Balanco, Balada (1963), as ME-5. Elenco Premier is ME-6, the last 1963 release. These albums covers are amazing and were designed by Cesar Villela, and they have something in common.
 
EAC Лог
Exact Audio Copy V0.99 prebeta 5 from 4. May 2009
EAC extraction logfile from 22. January 2010, 14:42
Various / Elenco Première
Used drive : HL-DT-STDVDRAM GH20NS15 Adapter: 0 ID: 0
Read mode : Secure
Utilize accurate stream : Yes
Defeat audio cache : Yes
Make use of C2 pointers : No
Read offset correction : 667
Overread into Lead-In and Lead-Out : No
Fill up missing offset samples with silence : Yes
Delete leading and trailing silent blocks : No
Null samples used in CRC calculations : Yes
Used interface : Installed external ASPI interface
Used output format : User Defined Encoder
Selected bitrate : 1024 kBit/s
Quality : High
Add ID3 tag : No
Command line compressor : C:\Program Files\Exact Audio Copy\Flac\flac.exe
Additional command line options : -8 -A tukey(0.25) -A gauss(0.1875) -b 4096 -V -T "artist=%a" -T "title=%t" -T "album=%g" -T "date=%y" -T "tracknumber=%n" -T "genre=%m" %s --sector-align
TOC of the extracted CD
Track | Start | Length | Start sector | End sector
---------------------------------------------------------
1 | 0:00.00 | 3:05.61 | 0 | 13935
2 | 3:05.61 | 3:53.28 | 13936 | 31438
3 | 6:59.14 | 1:44.43 | 31439 | 39281
4 | 8:43.57 | 1:59.30 | 39282 | 48236
5 | 10:43.12 | 4:01.52 | 48237 | 66363
6 | 14:44.64 | 3:23.19 | 66364 | 81607
7 | 18:08.08 | 1:47.66 | 81608 | 89698
8 | 19:55.74 | 3:16.27 | 89699 | 104425
9 | 23:12.26 | 2:48.73 | 104426 | 117098
10 | 26:01.24 | 2:36.72 | 117099 | 128870
11 | 28:38.21 | 2:00.57 | 128871 | 137927
12 | 30:39.03 | 2:17.45 | 137928 | 148247
Range status and errors
Selected range
Filename D:\Torrents.ru\Elenco Première\Various Artists - Elenco Première\Various - Elenco Première.wav
Peak level 99.7 %
Range quality 100.0 %
Test CRC 0AA5F29D
Copy CRC 0AA5F29D
Copy OK
No errors occurred
End of status report
 
Audiochecker
AUDIOCHECKER v2.0 beta (build 457) - by Dester - opdester@freemail.hu
~~~~~~~~~~~~~~~~~~~~~~~~~~~~~~~~~~
-=== DO NOT EDIT THIS FILE! ===-
Path: ...\Various Artists - Elenco Première
1 -=- Various - Elenco Première.flac -=- CDDA (100%)
255894756
13:02
334
Нет комментариев. Ваш будет первым!