Поиск

(Bossa Nova/Latin Jazz) Tom Jobim & Billy Blanco - Serie Idolos Da MPB 7 - 1974, FLAC (image+.cue), lossless

Треклист:
Tom Jobim & Billy Blanco - Serie Idolos Da MPB 7
Жанр: Bossa Nova/Latin Jazz
Год выпуска диска: 1974
Производитель диска: Continental Discos - 1.19.405-007 - Brazil
Источник: My CD
Аудио кодек: FLAC
Тип рипа: image+.cue
Битрейт аудио: lossless
Продолжительность: 32:47
Трэклист:
01 - Sinfonia do Rio De Janeiro
(Antonio Carlos Jobim / Billy Blanco)
Featuring:
Ted Moreno, Risadinha, Nelly Martins, Luely Figueiro, Albertinho Fortuna, Maysa, Jamelao, Os Cariocas
Orchestra by Maestro Radames Gnattali
02 - Teresa Da Praia
(Antonio Carlos Jobim / Billy Blanco)
Dick Farney & Lucio Alves
Tom e Seu Conjunto
03 - Outra Vez
(Antonio Carlos Jobim)
Dick Farney
Alexandre Gnattali e Sua Orquestra
04 - Solidao
(Alcides Fernandes / Antonio Carlos Jobim)
Nora Ney
Vero e Sua Orquestra
05 - A Chuva Caiu
(Luiz Bonfa /Antonio Carlos Jobim)
Luiz Bonfa e Seu Conjunto
06 - Samba Nao E Brinquedo
(Antonio Carlos Jobim / Luiz Bonfa)
Dora Lopes
Luiz Bonfa e Seu Conjunto
07 - Se E Por Falta De Deus
(Antonio Carlos Jobim / Dolores Duran)
Doris Monteiro
Antonio Carlos Jobim e Sua Orquestra
Доп. информация:
 
Scans
 
Информация/Information
This is Tom Jobim e Billy Blanco - Serie Idolos MPB 7 (1974), for Continental, featuring a constellation of Brazilian artists performing Sinfonia do Rio de Janeiro and remasterings featuring Antonio Carlos Jobim music performed by Luiz Bonfa, Dick Farney, Lucio Alves, Nora Ney, Dora Lopes and Doris Monteiro. Antonio Carlos Jobim also performs in these tracks with his "Conjunto" and orchestra, as detailed on track list information below.
 
EAC Лог
Exact Audio Copy V0.99 prebeta 5 from 4. May 2009
EAC extraction logfile from 18. January 2010, 16:46
Tom Jobim & Billy Blanco / Serie Idolos Da MPB 7
Used drive : HL-DT-STDVDRAM GH20NS15 Adapter: 0 ID: 0
Read mode : Secure
Utilize accurate stream : Yes
Defeat audio cache : Yes
Make use of C2 pointers : No
Read offset correction : 667
Overread into Lead-In and Lead-Out : No
Fill up missing offset samples with silence : Yes
Delete leading and trailing silent blocks : No
Null samples used in CRC calculations : Yes
Used interface : Installed external ASPI interface
Used output format : User Defined Encoder
Selected bitrate : 1024 kBit/s
Quality : High
Add ID3 tag : No
Command line compressor : C:\Program Files\Exact Audio Copy\Flac\flac.exe
Additional command line options : -8 -A tukey(0.25) -A gauss(0.1875) -b 4096 -V -T "artist=%a" -T "title=%t" -T "album=%g" -T "date=%y" -T "tracknumber=%n" -T "genre=%m" %s --sector-align
TOC of the extracted CD
Track | Start | Length | Start sector | End sector
---------------------------------------------------------
1 | 0:00.00 | 15:40.27 | 0 | 70526
2 | 15:40.27 | 2:50.45 | 70527 | 83321
3 | 18:30.72 | 3:01.09 | 83322 | 96905
4 | 21:32.06 | 2:59.26 | 96906 | 110356
5 | 24:31.32 | 2:26.68 | 110357 | 121374
6 | 26:58.25 | 2:32.13 | 121375 | 132787
7 | 29:30.38 | 3:16.51 | 132788 | 147538
Range status and errors
Selected range
Filename D:\Torrents.ru\Antônio Carlos Jobim\Tom Jobim & Billy Blanco - Serie Idolos Da MPB 7\Tom Jobim & Billy Blanco - Serie Idolos Da MPB 7.wav
Peak level 99.9 %
Range quality 100.0 %
Test CRC 6EF492BA
Copy CRC 6EF492BA
Copy OK
No errors occurred
End of status report
 
Audiochecker
AUDIOCHECKER v2.0 beta (build 457) - by Dester - opdester@freemail.hu
~~~~~~~~~~~~~~~~~~~~~~~~~~~~~~~~~~
-=== DO NOT EDIT THIS FILE! ===-
Path: ...\Tom Jobim & Billy Blanco - Serie Idolos Da MPB 7
1 -=- Tom Jobim & Billy Blanco - Serie Idolos Da MPB 7.flac -=- CDDA (100%)
210360708
12:50
512
Нет комментариев. Ваш будет первым!