Поиск

(Bossa Nova/Latin Jazz) Milton Nascimento - The Best Of - 1994, FLAC (image+.cue), lossless

(Bossa Nova/Latin Jazz) Milton Nascimento - The Best Of - 1994, FLAC (image+.cue), lossless
Треклист:
Milton Nascimento - The Best Of
Жанр: Bossa Nova/Latin Jazz
Год выпуска диска: 1994
Производитель диска: Som Livre (Sistema Globo de Gravações Audio Visuais Ltda.) - 400.1274 - Brazil
Аудио кодек: FLAC
Тип рипа: image+.cue
Битрейт аудио: lossless
Продолжительность: 58:17
Трэклист:
01 - Travessia
02 - Coração De Estudante
03 - Unencounter (Canção Da América)
04 - Cravo E Canela
05 - Um Índio
06 - Paula & Bebeto
07 - Beatriz
08 - Caçador De Mim
09 - Nos Bailes Da Vida
10 - Para Lennon & McCartney
11 - Maria Maria
12 - Amor De Índio
13 - Luar Do Sertão
14 - O Cio Da Terra
 
Info
Milton Nascimento (born October 26, 1942) is a prominent Brazilian singer, songwriter, and guitarist.
Nascimento's mother was the maid Maria do Carmo Nascimento. As a baby, Milton Nascimento was adopted by his mother's former employers: the couple Josino Brito Campos, a banker, mathematics teacher and electronic technician; and Lília Silva Campos, a music teacher and choir singer. When he was 18 months old, Nascimento's biological mother died, and he moved with his adopted parents to the city of Três Pontas, in the state of Minas Gerais.
Nascimento was an occasional DJ on a radio station that his father once ran.[1] He lived in the boroughs of Laranjeiras and Tijuca in Rio de Janeiro.
In the early stages of his career, Nascimento played in two samba groups; Evolussamba and Sambacana. In 1963, he moved to Belo Horizonte, where his friendship with Lô Borges led to the Clube da Esquina ("corner club") movement.[2] Members included Beto Guedes, Toninho Horta, Wagner Tiso, and Flávio Venturini, with whom he shared compositions and melodies. One composition was "Canção do Sal", which was first interpreted by Elis Regina in 1966 and led to a television appearance with Nascimento.[1] The collective, as well as some others, released Clube da Esquina in 1972. Several hit singles were also released.[3]
Nascimento is famous for his falsetto and tonal range, as well for highly acclaimed songs such as "Maria, Maria", "Canção da América" ("Song from America"), "Travessia", "Bailes da Vida" and "Coração de Estudante" ("Student's Heart"). The lyrics remember the funeral of the student Edson Luís, killed by police officers in 1968. The song became the hymn for the Diretas Já social-political campaign in 1984, was played at the funeral of the late President of Brazil Tancredo Neves the next year, and was also played at Ayrton Senna's funeral.
While his reputation within Brazil was firmly established with his Clube da Esquina works, Nascimento's international breakthrough came with his appearance on jazz saxophonist Wayne Shorter's 1974 album Native Dancer. This led to widespread acclaim, and collaborations with stars such as Paul Simon, Cat Stevens, George Duke and Quincy Jones. Angelus (1994) features appearances by Pat Metheny, Ron Carter, Herbie Hancock, Jack DeJohnette, Nana Vasconcelos, Jon Anderson, James Taylor, and Peter Gabriel. Through his friendship with guitarist Warren Cuccurullo, Nascimento came to work with the pop rock band Duran Duran in 1993. Nascimento co-wrote and performed the song "Breath After Breath", featured on the band's 1993 album Duran Duran.[3] He also performed with the band in concert when they toured in Brazil in support of that album.
 
EAC Log
Exact Audio Copy V0.99 prebeta 5 from 4. May 2009
EAC extraction logfile from 9. October 2009, 14:53
Milton Nascimento / Milton Nascimento
Used drive : HL-DT-STDVDRAM GH20NS15 Adapter: 0 ID: 0
Read mode : Secure
Utilize accurate stream : Yes
Defeat audio cache : Yes
Make use of C2 pointers : No
Read offset correction : 667
Overread into Lead-In and Lead-Out : No
Fill up missing offset samples with silence : Yes
Delete leading and trailing silent blocks : No
Null samples used in CRC calculations : Yes
Used interface : Installed external ASPI interface
Used output format : User Defined Encoder
Selected bitrate : 1024 kBit/s
Quality : High
Add ID3 tag : No
Command line compressor : C:\Program Files\Exact Audio Copy\Flac\flac.exe
Additional command line options : -8 -A tukey(0.25) -A gauss(0.1875) -b 4096 -V -T "artist=%a" -T "title=%t" -T "album=%g" -T "date=%y" -T "tracknumber=%n" -T "genre=%m" %s --sector-align
TOC of the extracted CD
Track | Start | Length | Start sector | End sector
---------------------------------------------------------
1 | 0:00.00 | 3:59.60 | 0 | 17984
2 | 3:59.60 | 3:53.45 | 17985 | 35504
3 | 7:53.30 | 3:51.70 | 35505 | 52899
4 | 11:45.25 | 3:41.32 | 52900 | 69506
5 | 15:26.57 | 5:07.18 | 69507 | 92549
6 | 20:34.00 | 3:26.42 | 92550 | 108041
7 | 24:00.42 | 4:58.63 | 108042 | 130454
8 | 28:59.30 | 3:45.57 | 130455 | 147386
9 | 32:45.12 | 4:07.33 | 147387 | 165944
10 | 36:52.45 | 5:20.50 | 165945 | 189994
11 | 42:13.20 | 3:08.67 | 189995 | 204161
12 | 45:22.12 | 5:02.45 | 204162 | 226856
13 | 50:24.57 | 4:19.33 | 226857 | 246314
14 | 54:44.15 | 3:33.42 | 246315 | 262331
Range status and errors
Selected range
Filename D:\Torrents.ru\Milton Nascimento\Milton Nascimento - The Best Of\Milton Nascimento - The Best Of.wav
Peak level 100.0 %
Range quality 100.0 %
Test CRC 29F0D642
Copy CRC 29F0D642
Copy OK
No errors occurred
AccurateRip summary
Track 1 not present in database
Track 2 not present in database
Track 3 not present in database
Track 4 not present in database
Track 5 not present in database
Track 6 not present in database
Track 7 not present in database
Track 8 not present in database
Track 9 not present in database
Track 10 not present in database
Track 11 not present in database
Track 12 not present in database
Track 13 not present in database
Track 14 not present in database
None of the tracks are present in the AccurateRip database
End of status report
 
Audiochecker
AUDIOCHECKER v2.0 beta (build 457) - by Dester - opdester@freemail.hu
~~~~~~~~~~~~~~~~~~~~~~~~~~~~~~~~~~
-=== DO NOT EDIT THIS FILE! ===-
Path: ...\Milton Nascimento - The Best Of
1 -=- Milton Nascimento - The Best Of.flac -=- CDDA (100%)
153292532
 
Tau Analyzer
Download available for power users only.
08:21
178
Нет комментариев. Ваш будет первым!