Поиск

(Bossa Nova/Jazz) Paula Morelenbaum - Berimbaum - 2004, FLAC (image+.cue), lossless

Треклист:
Paula Morelenbaum - Berimbaum

Жанр: Bossa Nova/Jazz
Год выпуска диска: 2004
Производитель диска: Brasil/Ukraine
Аудио кодек: FLAC
Тип рипа: image+.cue
Битрейт аудио: lossless
Продолжительность: 00:51:03
Трэклист:
1. Tomara
2. Consolacao
3. Berimbau
4. Canto de Ossanha
5. Insensatez
6. Medo de Amar (Vire Essa Folha Do Livro)
7. Brigas Nunca Mais
8. Vocк E Eu
9. Seule
10. Desalento
11. Primavera
12. O Nosso Amor
13. Canto de Ossanha (Remix)
Доп. информация: Паула Мореленбаум (Regina Paula Martins Morelenbaum, род. 31.07.1962) - бразильская джазовая певица.
С 1984 по 1994 гг. вместе со своим мужем Жаком Мореленбаумом (Jaques Morelenbaum) были участниками
группы Антонио Карлоса Жобима.
Первый сольный альбом выпустила в 1992 году.
http://www.discogs.com/Paula-Morelenbaum-Berimbaum/release/763429
Диск из собственной коллекции (Odyssey Records), рип мой,сканы 300 dpi.
EAC Log:
 
скрытый текст
Exact Audio Copy V0.99 prebeta 5 from 4. May 2009
Отчёт EAC об извлечении, выполненном 28. июня 2010, 10:23
Paula Morelenbaum / Berimbaum
Дисковод: HL-DT-STDVDRAM GSA-T20N Adapter: 0 ID: 0
Режим чтения : Достоверность
Использование точного потока : Да
Отключение кэша аудио : Да
Использование указателей C2 : Нет
Комбинированное смещение чтения/записи : 667
Способность читать области Lead-in и Lead-out : Нет
Заполнение пропущенных сэмплов тишиной : Да
Удаление блоков с тишиной в начале и конце : Нет
При вычислениях CRC использовались нулевые сэмплы : Да
Интерфейс : Встроенный Win32-интерфейс для Win NT/2000
Выходной формат : Пользовательский кодировщик
Выбранный битрейт : 896 kBit/s
Качество : Высокий
Добавление ID3-тэга : Нет
Утилита сжатия : C:\Program Files\Exact Audio Copy\FLAC\FLAC.EXE
Дополнительные параметры : -6 -V -T "ARTIST=%a" -T "TITLE=%t" -T "ALBUM=%g" -T "DATE=%y" -T "TRACKNUMBER=%n" -T "GENRE=%m" -T "COMMENT=%e" %s -o %d
TOC извлечённого CD
Трек | Старт | Длительность | Начальный сектор | Конечный сектор
---------------------------------------------------------------------
1 | 0:00.00 | 4:03.59 | 0 | 18283
2 | 4:03.59 | 3:56.55 | 18284 | 36038
3 | 8:00.39 | 4:30.15 | 36039 | 56303
4 | 12:30.54 | 4:37.60 | 56304 | 77138
5 | 17:08.39 | 3:54.01 | 77139 | 94689
6 | 21:02.40 | 4:15.60 | 94690 | 113874
7 | 25:18.25 | 3:24.02 | 113875 | 129176
8 | 28:42.27 | 3:31.55 | 129177 | 145056
9 | 32:14.07 | 3:40.18 | 145057 | 161574
10 | 35:54.25 | 4:37.71 | 161575 | 182420
11 | 40:32.21 | 3:56.57 | 182421 | 200177
12 | 44:29.03 | 3:20.20 | 200178 | 215197
13 | 47:49.23 | 3:53.38 | 215198 | 232710
Характеристики диапазона извлечения и сообщения об ошибках
Выбранный диапазон
Имя файла C:\Users\CEVORA\Desktop\Paula Morelenbaum - Berimbaum.wav
Пиковый уровень 98.8 %
Качество диапазона 99.9 %
CRC теста AD5C3C2E
CRC копии AD5C3C2E
Копирование... OK
Ошибок не произошло
Конец отчёта
16:33
533
Нет комментариев. Ваш будет первым!