Поиск

(Bossa Nova/Brazilian Jazz) Marlene, Toquinho & Guarnieri - Botequim - 1973, FLAC (image+.cue), lossless

Треклист:
Marlene, Toquinho & Guarnieri - Botequim
Жанр: Bossa Nova/Brazilian Jazz
Год выпуска диска: 1973
Производитель диска: RGE Discos - 303.0018 - Brazil
Источник: My CD
Аудио кодек: FLAC
Тип рипа: image+.cue
Битрейт аудио: lossless
Продолжительность: 32:27
Трэклист:
01 - Quem Sabe Mais (2:35)
02 - Esperando Por Voce (2:23)
03 - Cancao Do Medo (2:11)
04 - Meu Tempo E Castro Alves (3:39)
05 - Sou Assim (2:09)
06 - Um Grito Parado No Ar (3:23)
07 - Quanto Vale Uma Crianca (3:26)
08 - Embolada No Carrapato (2:49)
09 - Mesa De Bar (2:54)
10 - Dane-se (2:11)
11 - Vem Amor Vem Vinganca (1:25)
12 - Bobeou Nao Vai Entender (2:55)
 
Scans
 
Info
This is Marlene, Toquinho & Gianfrancesco Guarnieri – Botequim (1973), for RGE, featuring music composed by Toquinho and Gianfrancesco Guarnieri for three Guarnieri plays, Botequim, Castro Alves pede Passagem and Um Grito Parado no Ar. Brazilian friends will immediately associate Gianfrancesco Guarnieri with the play Eles Nao usam Black Tie, written eight years later in 1981, an acknowledged play inside and outside Brazil. This is a nice album with Marlene delivering beautiful singing and Toquinho playing very solid.
 
EAC Лог
Exact Audio Copy V0.99 prebeta 5 from 4. May 2009
EAC extraction logfile from 22. January 2010, 17:11
Marlene, Toquinho & Guarnieri / Botequim
Used drive : HL-DT-STDVDRAM GH20NS15 Adapter: 0 ID: 0
Read mode : Secure
Utilize accurate stream : Yes
Defeat audio cache : Yes
Make use of C2 pointers : No
Read offset correction : 667
Overread into Lead-In and Lead-Out : No
Fill up missing offset samples with silence : Yes
Delete leading and trailing silent blocks : No
Null samples used in CRC calculations : Yes
Used interface : Installed external ASPI interface
Used output format : User Defined Encoder
Selected bitrate : 1024 kBit/s
Quality : High
Add ID3 tag : No
Command line compressor : C:\Program Files\Exact Audio Copy\Flac\flac.exe
Additional command line options : -8 -A tukey(0.25) -A gauss(0.1875) -b 4096 -V -T "artist=%a" -T "title=%t" -T "album=%g" -T "date=%y" -T "tracknumber=%n" -T "genre=%m" %s --sector-align
TOC of the extracted CD
Track | Start | Length | Start sector | End sector
---------------------------------------------------------
1 | 0:00.00 | 2:37.54 | 0 | 11828
2 | 2:37.54 | 2:25.20 | 11829 | 22723
3 | 5:02.74 | 2:13.03 | 22724 | 32701
4 | 7:16.02 | 3:41.21 | 32702 | 49297
5 | 10:57.23 | 2:11.30 | 49298 | 59152
6 | 13:08.53 | 3:25.02 | 59153 | 74529
7 | 16:33.55 | 3:28.08 | 74530 | 90137
8 | 20:01.63 | 2:51.55 | 90138 | 103017
9 | 22:53.43 | 2:56.40 | 103018 | 116257
10 | 25:50.08 | 2:13.63 | 116258 | 126295
11 | 28:03.71 | 1:27.58 | 126296 | 132878
12 | 29:31.54 | 2:55.38 | 132879 | 146041
Range status and errors
Selected range
Filename D:\Torrents.ru\Marlene, Toquinho & Guarnieri\Marlene, Toquinho & Guarnieri - Botequim\Marlene, Toquinho & Guarnieri - Botequim.wav
Peak level 100.0 %
Range quality 99.9 %
Test CRC 9DFA6392
Copy CRC 9DFA6392
Copy OK
No errors occurred
End of status report
 
Audiochecker
AUDIOCHECKER v2.0 beta (build 457) - by Dester - opdester@freemail.hu
~~~~~~~~~~~~~~~~~~~~~~~~~~~~~~~~~~
-=== DO NOT EDIT THIS FILE! ===-
Path: ...\Marlene, Toquinho & Guarnieri - Botequim
1 -=- Marlene, Toquinho & Guarnieri - Botequim.flac -=- CDDA (100%)
266978420
13:17
291
Нет комментариев. Ваш будет первым!