Поиск

(Bossa Nova, Vocal Jazz, Brazilian) Nara Leão | Nara Leao - Dez Anos Depois (1971) [Japan SHM-CD UICY-94154] - 2009, FLAC (tracks+.cue), lossless

(Bossa Nova, Vocal Jazz, Brazilian) Nara Leão | Nara Leao - Dez Anos Depois (1971) [Japan SHM-CD UICY-94154] - 2009, FLAC (tracks+.cue), lossless
Треклист:
Nara Leão
Dez Anos Depois
.

.
Жанр: Bossa Nova, Vocal Jazz, Brazilian | Страна: Brasil
Дата выпуска альбома / диска: 1971/2009 | Производитель диска: Universal, Japan
Аудио кодек: FLAC | Тип рипа: tracks+.cue | Битрейт аудио: lossless
Формат: Studio Album
Источник (релизер) : original CD, ripped by Flabber
Продолжительность: 65:01
.~ TRACKLiST ~
01. Insensatez (2:38)
02. Samba De Uma Nota So (2:10)
03. Retrato em Branco e Preto (2:38)
04. Corcovado (2:37)
05. Garota de Ipanema (2:24)
06. Poise (2:32)
07. Chega de Saudade (2:04)
08. Bonita (4:13)
09. Voce E Eu (2:19)
10. Fotografia (2:28)
11. O Grande Amor (1:52)
12. Estrada do Sol (2:22)
13. Por Toda Minha Vida (4:10)
14. Desafinado (2:51)
15. Minha Namorada (3:08)
16. Rapaz de Bem (1:56)
17. Vou Por Ai (2:05)
18. O Amor Em Paz (3:31)
19. Sabia (2:52)
20. Medatacao (2:20)
21. Primavera (3:09)
22. Este Seu Olhar (2:35)
23. Outra Vez (3:24)
24. Demais (2:43).
 
EAC log
Exact Audio Copy V0.99 prebeta 4 from 23. January 2008
EAC extraction logfile from 25. June 2009, 17:48
Nara Leao / Dez Anos Depois
Used drive : PLEXTOR DVDR PX-712A Adapter: 3 ID: 0
Read mode : Secure
Utilize accurate stream : Yes
Defeat audio cache : Yes
Make use of C2 pointers : No
Read offset correction : 30
Overread into Lead-In and Lead-Out : No
Fill up missing offset samples with silence : Yes
Delete leading and trailing silent blocks : No
Null samples used in CRC calculations : Yes
Used interface : Native Win32 interface for Win NT & 2000
Gap handling : Appended to previous track
Used output format : User Defined Encoder
Selected bitrate : 320 kBit/s
Quality : High
Add ID3 tag : No
Command line compressor : C:\Program\FLAC\flac.exe
Additional command line options : -8 -V -T "ARTIST=%a" -T "TITLE=%t" -T "ALBUM=%g" -T "DATE=%y" -T "TRACKNUMBER=%n" -T "GENRE=%m" -T "COMMENT=EAC FLAC -8" %s
TOC of the extracted CD
Track | Start | Length | Start sector | End sector
---------------------------------------------------------
1 | 0:00.00 | 2:38.63 | 0 | 11912
2 | 2:38.63 | 2:10.37 | 11913 | 21699
3 | 4:49.25 | 2:38.63 | 21700 | 33612
4 | 7:28.13 | 2:37.25 | 33613 | 45412
5 | 10:05.38 | 2:24.37 | 45413 | 56249
6 | 12:30.00 | 2:32.70 | 56250 | 67719
7 | 15:02.70 | 2:04.55 | 67720 | 77074
8 | 17:07.50 | 4:13.43 | 77075 | 96092
9 | 21:21.18 | 2:19.07 | 96093 | 106524
10 | 23:40.25 | 2:28.53 | 106525 | 117677
11 | 26:09.03 | 1:52.42 | 117678 | 126119
12 | 28:01.45 | 2:22.65 | 126120 | 136834
13 | 30:24.35 | 4:10.18 | 136835 | 155602
14 | 34:34.53 | 2:51.02 | 155603 | 168429
15 | 37:25.55 | 3:08.68 | 168430 | 182597
16 | 40:34.48 | 1:56.70 | 182598 | 191367
17 | 42:31.43 | 2:05.05 | 191368 | 200747
18 | 44:36.48 | 3:31.50 | 200748 | 216622
19 | 48:08.23 | 2:52.67 | 216623 | 229589
20 | 51:01.15 | 2:20.00 | 229590 | 240089
21 | 53:21.15 | 3:09.58 | 240090 | 254322
22 | 56:30.73 | 2:35.27 | 254323 | 265974
23 | 59:06.25 | 3:24.68 | 265975 | 281342
24 | 62:31.18 | 2:43.20 | 281343 | 293587
Track 1
Filename D:\Nara Leao - Dez Anos Depois (1970) [FLAC]\01 - Insensatez.wav
Pre-gap length 0:00:02.00
Peak level 99.8 %
Track quality 100.0 %
Test CRC 91EDA5CC
Copy CRC 91EDA5CC
Track not present in AccurateRip database
Copy OK
Track 2
Filename D:\Nara Leao - Dez Anos Depois (1970) [FLAC]\02 - Samba De Uma Nota So.wav
Peak level 99.8 %
Track quality 99.9 %
Test CRC 798AA4C2
Copy CRC 798AA4C2
Track not present in AccurateRip database
Copy OK
Track 3
Filename D:\Nara Leao - Dez Anos Depois (1970) [FLAC]\03 - Retrato em Branco e Preto.wav
Peak level 95.4 %
Track quality 100.0 %
Test CRC 2A642F01
Copy CRC 2A642F01
Track not present in AccurateRip database
Copy OK
Track 4
Filename D:\Nara Leao - Dez Anos Depois (1970) [FLAC]\04 - Corcovado.wav
Peak level 99.8 %
Track quality 100.0 %
Test CRC 62FDAD58
Copy CRC 62FDAD58
Track not present in AccurateRip database
Copy OK
Track 5
Filename D:\Nara Leao - Dez Anos Depois (1970) [FLAC]\05 - Garota de Ipanema.wav
Peak level 99.8 %
Track quality 100.0 %
Test CRC 86FADE2B
Copy CRC 86FADE2B
Track not present in AccurateRip database
Copy OK
Track 6
Filename D:\Nara Leao - Dez Anos Depois (1970) [FLAC]\06 - Poise.wav
Peak level 89.9 %
Track quality 100.0 %
Test CRC 53CBF9C9
Copy CRC 53CBF9C9
Track not present in AccurateRip database
Copy OK
Track 7
Filename D:\Nara Leao - Dez Anos Depois (1970) [FLAC]\07 - Chega de Saudade.wav
Pre-gap length 0:00:04.69
Peak level 89.9 %
Track quality 100.0 %
Test CRC 1C977868
Copy CRC 1C977868
Track not present in AccurateRip database
Copy OK
Track 8
Filename D:\Nara Leao - Dez Anos Depois (1970) [FLAC]\08 - Bonita.wav
Peak level 99.8 %
Track quality 100.0 %
Test CRC EC8DE9C0
Copy CRC EC8DE9C0
Track not present in AccurateRip database
Copy OK
Track 9
Filename D:\Nara Leao - Dez Anos Depois (1970) [FLAC]\09 - Voce E Eu.wav
Peak level 96.7 %
Track quality 100.0 %
Test CRC 3DC695F8
Copy CRC 3DC695F8
Track not present in AccurateRip database
Copy OK
Track 10
Filename D:\Nara Leao - Dez Anos Depois (1970) [FLAC]\10 - Fotografia.wav
Peak level 84.3 %
Track quality 100.0 %
Test CRC E94AD9CB
Copy CRC E94AD9CB
Track not present in AccurateRip database
Copy OK
Track 11
Filename D:\Nara Leao - Dez Anos Depois (1970) [FLAC]\11 - O Grande Amor.wav
Peak level 88.6 %
Track quality 99.9 %
Test CRC DEC19F8D
Copy CRC DEC19F8D
Track not present in AccurateRip database
Copy OK
Track 12
Filename D:\Nara Leao - Dez Anos Depois (1970) [FLAC]\12 - Estrada do Sol.wav
Peak level 98.8 %
Track quality 100.0 %
Test CRC 8ACB592D
Copy CRC 8ACB592D
Track not present in AccurateRip database
Copy OK
Track 13
Filename D:\Nara Leao - Dez Anos Depois (1970) [FLAC]\13 - Por Toda Minha Vida.wav
Pre-gap length 0:00:05.40
Peak level 99.8 %
Track quality 100.0 %
Test CRC D8830440
Copy CRC D8830440
Track not present in AccurateRip database
Copy OK
Track 14
Filename D:\Nara Leao - Dez Anos Depois (1970) [FLAC]\14 - Desafinado.wav
Peak level 99.8 %
Track quality 99.9 %
Test CRC A4CD4659
Copy CRC A4CD4659
Track not present in AccurateRip database
Copy OK
Track 15
Filename D:\Nara Leao - Dez Anos Depois (1970) [FLAC]\15 - Minha Namorada.wav
Peak level 89.1 %
Track quality 99.9 %
Test CRC 0B7F0DAF
Copy CRC 0B7F0DAF
Track not present in AccurateRip database
Copy OK
Track 16
Filename D:\Nara Leao - Dez Anos Depois (1970) [FLAC]\16 - Rapaz de Bem.wav
Peak level 99.8 %
Track quality 100.0 %
Test CRC 36CF0E73
Copy CRC 36CF0E73
Track not present in AccurateRip database
Copy OK
Track 17
Filename D:\Nara Leao - Dez Anos Depois (1970) [FLAC]\17 - Vou Por Ai.wav
Peak level 99.8 %
Track quality 100.0 %
Test CRC 611278BD
Copy CRC 611278BD
Track not present in AccurateRip database
Copy OK
Track 18
Filename D:\Nara Leao - Dez Anos Depois (1970) [FLAC]\18 - O Amor Em Paz.wav
Peak level 99.8 %
Track quality 100.0 %
Test CRC 23C0A207
Copy CRC 23C0A207
Track not present in AccurateRip database
Copy OK
Track 19
Filename D:\Nara Leao - Dez Anos Depois (1970) [FLAC]\19 - Sabia.wav
Peak level 99.8 %
Track quality 100.0 %
Test CRC 11EE6807
Copy CRC 11EE6807
Track not present in AccurateRip database
Copy OK
Track 20
Filename D:\Nara Leao - Dez Anos Depois (1970) [FLAC]\20 - Medatacao.wav
Peak level 89.3 %
Track quality 100.0 %
Test CRC 150F18B1
Copy CRC 150F18B1
Track not present in AccurateRip database
Copy OK
Track 21
Filename D:\Nara Leao - Dez Anos Depois (1970) [FLAC]\21 - Primavera.wav
Peak level 96.5 %
Track quality 100.0 %
Test CRC 4D722C08
Copy CRC 4D722C08
Track not present in AccurateRip database
Copy OK
Track 22
Filename D:\Nara Leao - Dez Anos Depois (1970) [FLAC]\22 - Este Seu Olhar.wav
Peak level 99.8 %
Track quality 100.0 %
Test CRC 2EBA349B
Copy CRC 2EBA349B
Track not present in AccurateRip database
Copy OK
Track 23
Filename D:\Nara Leao - Dez Anos Depois (1970) [FLAC]\23 - Outra Vez.wav
Peak level 99.8 %
Track quality 100.0 %
Test CRC E386778C
Copy CRC E386778C
Track not present in AccurateRip database
Copy OK
Track 24
Filename D:\Nara Leao - Dez Anos Depois (1970) [FLAC]\24 - Demais.wav
Peak level 98.9 %
Track quality 100.0 %
Test CRC 1E633A13
Copy CRC 1E633A13
Track not present in AccurateRip database
Copy OK
None of the tracks are present in the AccurateRip database
No errors occurred
End of status report
 
.cue
REM GENRE Latin
REM DATE 1970
REM DISCID 4C0F4A18
REM COMMENT "ExactAudioCopy v0.99pb4"
PERFORMER "Nara Leao"
TITLE "Dez Anos Depois"
FILE "01 - Insensatez.wav" WAVE
TRACK 01 AUDIO
TITLE "Insensatez"
PERFORMER "Nara Leao"
INDEX 01 00:00:00
FILE "02 - Samba De Uma Nota So.wav" WAVE
TRACK 02 AUDIO
TITLE "Samba De Uma Nota So"
PERFORMER "Nara Leao"
INDEX 01 00:00:00
FILE "03 - Retrato em Branco e Preto.wav" WAVE
TRACK 03 AUDIO
TITLE "Retrato em Branco e Preto"
PERFORMER "Nara Leao"
INDEX 01 00:00:00
FILE "04 - Corcovado.wav" WAVE
TRACK 04 AUDIO
TITLE "Corcovado"
PERFORMER "Nara Leao"
INDEX 01 00:00:00
FILE "05 - Garota de Ipanema.wav" WAVE
TRACK 05 AUDIO
TITLE "Garota de Ipanema"
PERFORMER "Nara Leao"
INDEX 01 00:00:00
FILE "06 - Poise.wav" WAVE
TRACK 06 AUDIO
TITLE "Poise"
PERFORMER "Nara Leao"
INDEX 01 00:00:00
TRACK 07 AUDIO
TITLE "Chega de Saudade"
PERFORMER "Nara Leao"
INDEX 00 02:28:18
FILE "07 - Chega de Saudade.wav" WAVE
INDEX 01 00:00:00
FILE "08 - Bonita.wav" WAVE
TRACK 08 AUDIO
TITLE "Bonita"
PERFORMER "Nara Leao"
INDEX 01 00:00:00
FILE "09 - Voce E Eu.wav" WAVE
TRACK 09 AUDIO
TITLE "Voce E Eu"
PERFORMER "Nara Leao"
INDEX 01 00:00:00
FILE "10 - Fotografia.wav" WAVE
TRACK 10 AUDIO
TITLE "Fotografia"
PERFORMER "Nara Leao"
INDEX 01 00:00:00
FILE "11 - O Grande Amor.wav" WAVE
TRACK 11 AUDIO
TITLE "O Grande Amor"
PERFORMER "Nara Leao"
INDEX 01 00:00:00
FILE "12 - Estrada do Sol.wav" WAVE
TRACK 12 AUDIO
TITLE "Estrada do Sol"
PERFORMER "Nara Leao"
INDEX 01 00:00:00
TRACK 13 AUDIO
TITLE "Por Toda Minha Vida"
PERFORMER "Nara Leao"
INDEX 00 02:17:35
FILE "13 - Por Toda Minha Vida.wav" WAVE
INDEX 01 00:00:00
FILE "14 - Desafinado.wav" WAVE
TRACK 14 AUDIO
TITLE "Desafinado"
PERFORMER "Nara Leao"
INDEX 01 00:00:00
FILE "15 - Minha Namorada.wav" WAVE
TRACK 15 AUDIO
TITLE "Minha Namorada"
PERFORMER "Nara Leao"
INDEX 01 00:00:00
FILE "16 - Rapaz de Bem.wav" WAVE
TRACK 16 AUDIO
TITLE "Rapaz de Bem"
PERFORMER "Nara Leao"
INDEX 01 00:00:00
FILE "17 - Vou Por Ai.wav" WAVE
TRACK 17 AUDIO
TITLE "Vou Por Ai"
PERFORMER "Nara Leao"
INDEX 01 00:00:00
FILE "18 - O Amor Em Paz.wav" WAVE
TRACK 18 AUDIO
TITLE "O Amor Em Paz"
PERFORMER "Nara Leao"
INDEX 01 00:00:00
FILE "19 - Sabia.wav" WAVE
TRACK 19 AUDIO
TITLE "Sabia"
PERFORMER "Nara Leao"
INDEX 01 00:00:00
FILE "20 - Medatacao.wav" WAVE
TRACK 20 AUDIO
TITLE "Medatacao"
PERFORMER "Nara Leao"
INDEX 01 00:00:00
FILE "21 - Primavera.wav" WAVE
TRACK 21 AUDIO
TITLE "Primavera"
PERFORMER "Nara Leao"
INDEX 01 00:00:00
FILE "22 - Este Seu Olhar.wav" WAVE
TRACK 22 AUDIO
TITLE "Este Seu Olhar"
PERFORMER "Nara Leao"
INDEX 01 00:00:00
FILE "23 - Outra Vez.wav" WAVE
TRACK 23 AUDIO
TITLE "Outra Vez"
PERFORMER "Nara Leao"
INDEX 01 00:00:00
FILE "24 - Demais.wav" WAVE
TRACK 24 AUDIO
TITLE "Demais"
PERFORMER "Nara Leao"
INDEX 01 00:00:00
 
Audiochecker’s log
AUDIOCHECKER v2.0 beta (build 457) - by Dester - opdester@freemail.hu
~~~~~~~~~~~~~~~~~~~~~~~~~~~~~~~~~~
Started at: пятница, 27. 01. 2012. - 14:08.29
24 files found
01 -===- F:\01 - Insensatez.flac
Extracted successfully
Conclusion: this track is CDDA with probability 100%
Tempfile successfully deleted.
02 -===- F:\02 - Samba De Uma Nota So.flac
Extracted successfully
Conclusion: this track is CDDA with probability 100%
Tempfile successfully deleted.
03 -===- F:\03 - Retrato em Branco e Preto.flac
Extracted successfully
Conclusion: this track is CDDA with probability 100%
Tempfile successfully deleted.
04 -===- F:\04 - Corcovado.flac
Extracted successfully
Conclusion: this track is CDDA with probability 100%
Tempfile successfully deleted.
05 -===- F:\05 - Garota de Ipanema.flac
Extracted successfully
Conclusion: this track is CDDA with probability 100%
Tempfile successfully deleted.
06 -===- F:\06 - Poise.flac
Extracted successfully
Conclusion: this track is CDDA with probability 100%
Tempfile successfully deleted.
07 -===- F:\07 - Chega de Saudade.flac
Extracted successfully
Conclusion: this track is CDDA with probability 100%
Tempfile successfully deleted.
08 -===- F:\08 - Bonita.flac
Extracted successfully
Conclusion: this track is CDDA with probability 100%
Tempfile successfully deleted.
09 -===- F:\09 - Voce E Eu.flac
Extracted successfully
Conclusion: this track is CDDA with probability 100%
.
Сидирую до первых 10-ти скачавших. Далее раздача поддерживается силами скачавших.
Скачали сами - дайте скачать другим. .
02:15
344
Нет комментариев. Ваш будет первым!